<?xml version="1.0" standalone="no"?>
<!DOCTYPE svg PUBLIC "-//W3C//DTD SVG 1.1//EN" "http://www.w3.org/Graphics/SVG/1.1/DTD/svg11.dtd" >
<svg xmlns="http://www.w3.org/2000/svg">
<metadata></metadata>
<defs>
<font id="loraregular" horiz-adv-x="1626" >
<font-face units-per-em="2048" ascent="1638" descent="-410" />
<missing-glyph horiz-adv-x="539" />
<glyph horiz-adv-x="2048" />
<glyph horiz-adv-x="2048" />
<glyph unicode="&#xd;" horiz-adv-x="0" />
<glyph unicode=" "  horiz-adv-x="539" />
<glyph unicode="&#x09;" horiz-adv-x="539" />
<glyph unicode="&#xa0;" horiz-adv-x="539" />
<glyph unicode="!" horiz-adv-x="545" d="M151 98q0 28 10 52.5t26.5 42.5t38.5 28.5t46 10.5q25 0 47 -10.5t38 -28.5t25 -42.5t9 -52.5q0 -27 -10 -51t-27 -42t-38.5 -28t-45.5 -10t-45.5 10t-38 28t-26 42t-9.5 51zM153 1316q-2 27 4.5 54t21.5 48.5t38 35t55 13.5q33 0 56 -13.5t37.5 -35t20 -48.5t3.5 -54 l-80 -845h-76z" />
<glyph unicode="&#x22;" horiz-adv-x="709" d="M126 1467h160l-17 -461h-126zM400 1467h160l-17 -461h-126z" />
<glyph unicode="#" horiz-adv-x="1700" d="M68 365l33 122h335l112 474h-345l33 122h341l91 384h135l-88 -384h435l91 384h135l-88 -384h343v-2l-31 -120h-340l-107 -474h342l-32 -122h-337l-90 -398h-148l93 398h-429l-90 -398h-147l93 398h-340zM579 487h430l112 474h-434z" />
<glyph unicode="$" horiz-adv-x="1083" d="M102 1110q0 32 9 70.5t28 77.5t49.5 76t73.5 66t99.5 47t127.5 20v239h111l-2 -240q58 -6 115 -25t112 -61l-8 87h102v-448h-75q-5 74 -22.5 141t-55 117.5t-98 80.5t-150.5 30q-65 0 -112 -21t-77.5 -54.5t-45.5 -77t-15 -88.5q0 -67 32 -118t84 -92.5t118.5 -77.5 t135.5 -72.5t135.5 -77t118.5 -92t84 -117.5t32 -152q0 -72 -24.5 -137.5t-74.5 -117.5t-125 -85.5t-175 -40.5l-1 -280h-106l-2 280q-36 1 -74 8.5t-75 19.5t-71.5 27.5t-62.5 33.5l10 -83h-110v433h71q6 -95 34.5 -162.5t77 -111t115.5 -64t148 -20.5q60 0 110 19t86 52.5 t56 80.5t20 103q0 71 -31.5 124t-83 95.5t-117.5 78t-134.5 71.5t-134.5 76t-117.5 91t-83 117t-31.5 154z" />
<glyph unicode="%" horiz-adv-x="1782" d="M74 1070q0 72 24 142t71.5 126.5t116.5 91.5t159 37q95 2 166 -30.5t117.5 -86t69.5 -122.5t23 -139q0 -79 -29.5 -152t-80.5 -128.5t-119.5 -88.5t-146.5 -33q-92 0 -161 32t-116 85.5t-70.5 122.5t-23.5 143zM250 1103q0 -49 8.5 -107.5t31 -109.5t61.5 -85t100 -34 q56 0 93 27.5t59.5 69.5t32 93t9.5 99q0 51 -9.5 110.5t-32 110t-61 84t-95.5 33.5q-58 0 -96 -31t-60.5 -75.5t-31.5 -95t-9 -89.5zM251 37l1156 1430l93 -82l-1162 -1420zM961 346q0 79 30 151.5t81.5 128t120.5 88.5t147 33q91 0 160.5 -32t116 -85.5t70 -122.5 t23.5 -143q0 -71 -24 -141.5t-71 -127t-116 -92t-159 -36.5q-95 -2 -166.5 30.5t-118.5 86.5t-70.5 122.5t-23.5 139.5zM1139 379q0 -52 10 -111t34 -109.5t63 -84t96 -33.5q58 0 95 30.5t58.5 75.5t30 95t8.5 89q0 33 -3.5 70.5t-12.5 75t-24 72t-37 61t-53 42t-71 15.5 q-56 0 -93 -27t-59.5 -69t-32 -93t-9.5 -99z" />
<glyph unicode="&#x26;" horiz-adv-x="1423" d="M74 369q0 66 22.5 124.5t64.5 109.5t101.5 93.5t133.5 74.5q-41 51 -71 97.5t-49 92t-27.5 91t-8.5 93.5q1 73 29.5 132.5t78.5 101.5t119.5 65t151.5 23q78 0 141 -22t107.5 -61t69 -91.5t24.5 -112.5q0 -57 -18 -110t-58 -103.5t-104 -99t-157 -95.5q39 -42 81 -85 t84 -87q21 -23 42.5 -44.5t46.5 -46t55.5 -53.5t70.5 -66q10 36 14.5 69t4.5 61q0 35 -7 70.5t-24.5 65t-47.5 48.5t-75 21v68h358v-84l-170 7q32 -28 47 -70t17 -99q2 -41 -7 -100t-35 -125q23 -21 48.5 -44t54.5 -49q93 -83 159.5 -122t98.5 -39v-68h-190 q-20 0 -84.5 38.5t-170.5 130.5q-33 -42 -75.5 -79t-97 -64t-121 -43t-147.5 -16q-89 0 -175.5 22t-154 70t-109 124.5t-41.5 185.5zM279 400q0 -84 26 -145.5t68 -101.5t96 -60.5t111 -22.5q64 -3 117 8.5t96 33t76.5 51.5t59.5 65q-29 25 -58 55q-139 135 -244 238.5 t-179 188.5q-49 -29 -81.5 -69.5t-52 -83.5t-27.5 -84.5t-8 -72.5zM412 1161q0 -44 12.5 -87.5t35 -86t53 -84.5t66.5 -81q115 75 170 168t55 183q0 49 -13 91t-37.5 72t-61 47t-83.5 17q-42 0 -78.5 -15.5t-62.5 -46t-41 -75t-15 -102.5z" />
<glyph unicode="'" horiz-adv-x="426" d="M127 1467h172l-18 -461h-135z" />
<glyph unicode="(" horiz-adv-x="625" d="M73 489q0 114 20.5 224t55 213.5t81 197t98 174t105.5 146.5t105 112l51 -47q-159 -212 -234 -470.5t-75 -549.5q0 -289 75.5 -538t233.5 -459l-51 -47q-51 47 -105 110.5t-105.5 141.5t-98 169t-81 191.5t-55 209t-20.5 222.5z" />
<glyph unicode=")" horiz-adv-x="625" d="M37 -508q159 212 234 470.5t75 549.5q0 289 -75.5 538t-233.5 459l51 47q51 -47 105 -110.5t105.5 -141.5t98 -169t81 -191.5t55 -209t20.5 -222.5t-20.5 -224t-55 -213.5t-81 -197t-98 -174t-105.5 -146.5t-105 -112z" />
<glyph unicode="*" horiz-adv-x="1065" d="M80 1117q0 13 5 27q9 27 28 38.5t42.5 12t49 -6.5t48.5 -18q63 -29 129.5 -61.5t118.5 -67.5q-18 60 -28.5 134t-18.5 143q-3 24 -2 50.5t9.5 48.5t25 36t45.5 14q28 0 44.5 -14t24 -36t8 -48.5t-2.5 -50.5q-8 -69 -18.5 -143t-28.5 -134q54 34 119 66t128 63 q22 11 48 18t50 6t43 -12.5t27 -37.5q5 -15 5 -28q0 -12 -5.5 -25t-23 -27.5t-42.5 -23.5t-50 -15q-33 -6 -69 -13t-72 -12.5t-71.5 -10t-66.5 -5.5q50 -40 101.5 -91t99.5 -102q19 -20 32.5 -42t19 -40t5.5 -31q0 -15 -6 -30t-25 -29q-22 -16 -43 -14.5t-39.5 14t-35 33 t-29.5 41.5q-16 30 -34 63t-35 66t-32 65.5t-26 61.5q-12 -29 -27 -61.5t-32 -65.5t-34.5 -66t-33.5 -63q-12 -21 -28 -41.5t-35 -33t-40.5 -14t-44.5 14.5q-18 15 -23.5 28.5t-5.5 30.5q0 12 5 30.5t19 41.5t30 41q48 51 99 103t102 90q-32 1 -67.5 5.5t-72 10t-72.5 12.5 t-69 13q-24 5 -49 14t-43 23.5t-24 29t-6 25.5z" />
<glyph unicode="+" horiz-adv-x="1055" d="M72 588v123l389 -2v403h132v-403l391 -2v-115l-391 -2v-422h-132v421z" />
<glyph unicode="," horiz-adv-x="518" d="M135 88q0 57 33 88t80 31q35 0 62 -14.5t45.5 -39.5t28 -59t9.5 -73t-11 -91.5t-31 -106.5t-48 -104.5t-62 -84.5l-55 41q17 21 36 57t33.5 80t22.5 92.5t2 95.5q-29 -13 -55.5 -11t-46.5 15t-31.5 35t-11.5 49z" />
<glyph unicode="-" horiz-adv-x="1001" d="M137 584v143h727v-135z" />
<glyph unicode="." horiz-adv-x="504" d="M131 98q0 28 10 52.5t26.5 42.5t38.5 28.5t46 10.5q25 0 46.5 -10.5t37.5 -28.5t25 -42.5t9 -52.5q0 -27 -10 -51t-26.5 -42t-38 -28t-45.5 -10t-45.5 10t-38 28t-26 42t-9.5 51z" />
<glyph unicode="/" horiz-adv-x="1413" d="M43 -481l1197 2037l132 -83l-1210 -2029z" />
<glyph unicode="0" horiz-adv-x="1272" d="M115 711q0 86 13 175.5t40 173.5t69.5 158t101.5 129.5t135.5 87.5t171.5 32q99 0 175.5 -31.5t133.5 -86t96 -127.5t63 -155.5t34.5 -171.5t10.5 -174t-12 -174t-38.5 -172.5t-67.5 -158t-99 -130t-134 -87.5t-171 -32q-104 0 -183.5 31.5t-137.5 85.5t-96.5 126.5 t-62 155.5t-33 171t-9.5 174zM326 753q0 -71 5.5 -151t19.5 -158.5t37.5 -150.5t59.5 -126.5t85.5 -87t115.5 -32.5q58 0 103 26t78.5 70.5t56 105.5t36 131t19.5 146t6 151q0 83 -6 168t-20 164t-37 148.5t-57 121t-80.5 81t-106.5 29.5q-59 0 -105.5 -26t-81.5 -71 t-59 -106.5t-39.5 -132t-22.5 -147.5t-7 -153z" />
<glyph unicode="1" horiz-adv-x="745" d="M37 1169l400 298h69l2 -1244q0 -40 -0.5 -76t-5.5 -65l172 8v-90h-522v68q53 2 87.5 19t54.5 47t28 72t8 95l-2 967h-4l-246 -159z" />
<glyph unicode="2" horiz-adv-x="1100" d="M94 0q0 108 34.5 192t91 155.5t129 137.5t149.5 139q133 127 192.5 236t59.5 210q0 57 -11.5 113.5t-40.5 102t-77.5 73.5t-122.5 28q-42 0 -80.5 -11.5t-70 -31t-54 -46t-33.5 -56.5q20 -22 28.5 -45.5t8.5 -46.5q0 -13 -5 -30t-17 -31.5t-31 -24.5t-47 -9 q-46 2 -70 34.5t-24 78.5q0 43 27 95.5t81 97.5t134 75.5t186 30.5q81 0 158.5 -19t138 -62.5t97 -115t36.5 -175.5q0 -52 -22 -111t-70 -127t-124.5 -145.5t-185.5 -167.5q-70 -57 -128 -112t-101 -104.5t-69.5 -93t-33.5 -79.5l363 -10q75 -2 137.5 -2.5t108 11.5t71 42.5 t25.5 90.5h62l-13 -287h-887z" />
<glyph unicode="3" horiz-adv-x="1141" d="M90 246q0 46 24 78.5t70 34.5q28 1 46.5 -8t29.5 -23t15.5 -31t4.5 -31q0 -21 -6.5 -41.5t-15.5 -40.5q10 -35 34.5 -59.5t58.5 -40t74 -23t82 -7.5q73 0 132.5 20t101.5 59.5t64.5 97.5t22.5 134q0 67 -14.5 131t-55 113t-111.5 78t-183 27q-34 0 -74 -3v92h84 q81 0 135 29.5t87 73.5t47 94.5t14 92.5q0 63 -11.5 117t-39.5 93t-74.5 61.5t-116.5 22.5q-46 0 -86.5 -13.5t-72 -35t-52.5 -48t-29 -51.5q18 -20 25.5 -41.5t7.5 -42.5q0 -12 -5 -28t-16 -29.5t-29 -23t-44 -8.5q-44 2 -66.5 32.5t-22.5 73.5q0 42 25.5 93.5t77.5 96.5 t130.5 75t184.5 30q82 0 156.5 -19.5t131.5 -62t91 -110t34 -164.5q0 -49 -17 -97.5t-56 -93.5t-103.5 -83.5t-158.5 -67.5v-2q97 -10 174.5 -42t131.5 -82.5t83 -117.5t29 -146q0 -104 -43 -181.5t-114.5 -128.5t-165 -76.5t-193.5 -25.5q-111 0 -192.5 26.5t-135 67.5 t-79.5 90.5t-26 94.5z" />
<glyph unicode="4" horiz-adv-x="1110" d="M25 395v101l740 971h69v-949l207 -2v-121h-207v-172q0 -42 -1 -78t-7 -67l158 6v-84h-516v68h16q52 4 84 23.5t50 53t24 79.5t6 102v69h-623zM160 528l488 -6v653h-4z" />
<glyph unicode="5" horiz-adv-x="1114" d="M106 246q0 46 24 78.5t70 34.5q28 1 46.5 -8t29.5 -23t15.5 -31t4.5 -31q0 -20 -6 -41t-16 -38q6 -38 33 -65.5t64 -44.5t79 -24.5t78 -5.5q75 3 128.5 33t88 78t50.5 109t16 126q0 38 -3.5 83t-14.5 90t-32.5 86.5t-56.5 74t-86.5 51.5t-123.5 19q-26 0 -62 -5 t-73.5 -14t-73.5 -22.5t-62 -30.5l-57 53l-5 656h532q58 0 97 8t62.5 24t33.5 41t10 60h57l-12 -271l-686 -14l1 -450q50 20 128 38.5t169 18.5q126 0 215.5 -40.5t146 -106t83 -147.5t26.5 -165q0 -114 -41.5 -200.5t-111 -145t-160.5 -88t-191 -29.5q-98 0 -175 26.5 t-130 67.5t-81 90.5t-28 94.5z" />
<glyph unicode="6" horiz-adv-x="1184" d="M115 674q0 61 9 143.5t32 170.5t62.5 174t101.5 153.5t148.5 109.5t203.5 42q91 0 159 -26.5t113 -65.5t67.5 -84.5t22.5 -83.5q0 -44 -21.5 -74.5t-65.5 -32.5q-26 -1 -44 7t-29 21t-16 28.5t-5 28.5q0 20 6.5 43t19.5 43q-6 18 -22.5 39t-42.5 39t-61 29.5t-77 11.5 q-78 0 -135.5 -36t-98 -94t-66 -131t-40.5 -147t-21.5 -142.5t-7.5 -117.5q25 34 59.5 65.5t78 55.5t95 38t111.5 14q123 0 206 -42.5t133.5 -109.5t72 -148t21.5 -159q0 -96 -36.5 -181.5t-100.5 -149t-152 -101t-191 -37.5q-137 0 -230 49.5t-151 141.5t-83 222.5 t-25 293.5zM309 577q5 -97 22.5 -192t52 -170t89 -121.5t135.5 -46.5q72 0 123.5 28.5t83.5 76t47 109.5t15 130q0 38 -4 83.5t-14.5 91.5t-29.5 88.5t-49 75.5t-72.5 53t-99.5 20q-48 0 -95 -18.5t-87.5 -50t-71 -72.5t-45.5 -85z" />
<glyph unicode="7" horiz-adv-x="944" d="M45 1130v304h858v-140q-50 -102 -89.5 -197t-73 -188t-62.5 -187t-56 -193.5t-53.5 -207.5t-56.5 -228q-6 -25 -15.5 -48.5t-22.5 -41t-31.5 -28t-42.5 -8.5q-41 3 -56.5 28.5t-15.5 62.5q0 33 14.5 83.5t35.5 107.5t45 116t44 110q28 72 66.5 169t82.5 206t93 223 t100 220l-541 -3q-83 -1 -128.5 -38.5t-45.5 -121.5h-49z" />
<glyph unicode="8" horiz-adv-x="1151" d="M121 307q0 69 26 129.5t69.5 112.5t99.5 96.5t116 82.5q-78 46 -132 92.5t-87.5 92.5t-48.5 91.5t-15 90.5q0 97 39 167t101 115.5t139.5 67.5t155.5 22t150 -22t127.5 -64t89 -103.5t33.5 -141.5q0 -61 -22 -114t-60 -98t-88 -81.5t-107 -64.5q68 -40 130 -89 t109 -104.5t75 -117.5t28 -128q0 -97 -40 -167t-107 -115.5t-154.5 -67.5t-182.5 -22q-72 0 -150 17t-143.5 56.5t-108 104.5t-42.5 162zM293 344q-4 -65 14.5 -119t54.5 -93t89 -60.5t118 -22.5q133 -2 206 65t73 188q0 53 -17.5 105.5t-57 102t-104.5 95t-160 85.5 q-56 -41 -96 -85.5t-66 -90t-39 -89t-15 -81.5zM340 1140q0 -56 22.5 -104.5t62 -89.5t93.5 -73t116 -54q92 63 140 139.5t50 154.5q2 132 -62.5 202t-173.5 72q-61 1 -107 -20t-77.5 -55.5t-47.5 -79t-16 -92.5z" />
<glyph unicode="9" horiz-adv-x="1184" d="M98 993q0 100 34 186.5t97 150.5t152.5 100.5t200.5 36.5q144 0 237.5 -56t147.5 -154.5t75 -232.5t21 -289q0 -75 -7.5 -160.5t-28 -170.5t-58 -164t-97 -139t-144.5 -96.5t-202 -37.5q-101 -1 -171.5 23.5t-115 62t-65 82t-20.5 85.5q0 44 22.5 74.5t66.5 32.5 q25 1 42.5 -7.5t28.5 -22t16 -29.5t5 -29q0 -42 -27 -84q7 -22 22 -42t40 -35t61 -24t85 -9q78 0 134.5 33t96 87t64 123.5t38 143.5t18 145.5t3.5 130.5q-26 -34 -60 -65t-77 -54.5t-95 -37.5t-112 -14q-82 0 -145.5 19.5t-111 53t-80 78.5t-53 95.5t-29.5 104t-9 105.5z M301 1038q0 -38 4 -83.5t14.5 -90.5t29.5 -87.5t49 -75.5t72 -52.5t99 -19.5q48 0 95.5 18.5t88 49.5t71 71.5t44.5 85.5q-5 96 -21.5 191.5t-51 171.5t-90 123.5t-138.5 47.5q-66 0 -116 -29t-83 -78t-50 -112t-17 -131z" />
<glyph unicode=":" horiz-adv-x="512" d="M137 98q0 28 10 52.5t26.5 42.5t38.5 28.5t46 10.5q25 0 46.5 -10.5t37.5 -28.5t25 -42.5t9 -52.5q0 -27 -10 -51t-26.5 -42t-38 -28t-45.5 -10t-45.5 10t-38 28t-26 42t-9.5 51zM137 923q0 28 10 52.5t26.5 42.5t38.5 28.5t46 10.5q25 0 46.5 -10.5t37.5 -28.5t25 -42.5 t9 -52.5q0 -27 -10 -51t-26.5 -42t-38 -28t-45.5 -10t-45.5 10t-38 28t-26 42t-9.5 51z" />
<glyph unicode=";" horiz-adv-x="539" d="M143 88q0 57 33 88t80 31q35 0 62 -14.5t45.5 -39.5t28 -59t9.5 -73t-11 -91.5t-31 -106.5t-48 -104.5t-62 -84.5l-55 41q17 21 36 57t33.5 80t22.5 92.5t2 95.5q-29 -13 -55.5 -11t-46.5 15t-31.5 35t-11.5 49zM143 923q0 28 10 52.5t26.5 42.5t38.5 28.5t46 10.5 q25 0 46.5 -10.5t37.5 -28.5t25 -42.5t9 -52.5q0 -27 -10 -51t-26.5 -42t-38 -28t-45.5 -10t-45.5 10t-38 28t-26 42t-9.5 51z" />
<glyph unicode="&#x3c;" horiz-adv-x="1110" d="M70 571v138l912 405v-127l-773 -340l773 -342v-131z" />
<glyph unicode="=" horiz-adv-x="1212" d="M150 383v127l912 -4v-119zM150 768v127l912 -4v-119z" />
<glyph unicode="&#x3e;" horiz-adv-x="1108" d="M127 174v127l773 340l-773 342v131l912 -397v-138z" />
<glyph unicode="?" horiz-adv-x="971" d="M68 1181q0 45 28.5 95.5t82 92.5t130 70t173.5 28q118 0 199 -32t129.5 -83t68 -115t15.5 -128q-4 -69 -39.5 -128t-86.5 -110t-109 -95.5t-107.5 -83.5t-82 -75t-32.5 -70q0 -12 4.5 -24.5t14.5 -22t26.5 -15.5t40.5 -6q14 0 35.5 3.5t40.5 11.5l24 -72 q-32 -19 -77.5 -28t-83.5 -9q-30 0 -59.5 7.5t-52.5 23.5t-37.5 42t-14.5 64q0 46 29 86.5t73 80t95.5 82t96.5 93t75.5 112t33.5 139.5q1 55 -10.5 104.5t-40.5 87t-78 59t-121 21.5q-44 0 -83.5 -13.5t-69.5 -35t-49 -47t-23 -49.5q11 -18 17 -38t6 -42q0 -13 -5.5 -29 t-16.5 -29.5t-29 -22t-43 -7.5q-44 2 -65.5 32.5t-21.5 74.5zM365 88q0 25 9.5 47t25 38.5t35.5 26t41 9.5q23 0 43 -9.5t34.5 -26t23 -38.5t8.5 -47t-8 -47t-22.5 -38.5t-34.5 -26t-44 -9.5q-21 0 -41 8t-35.5 24t-25 38t-9.5 51z" />
<glyph unicode="@" horiz-adv-x="1630" d="M102 526q0 86 19 175t57 173t96.5 159t138 133t169 90t159 40t115.5 8q102 0 192 -20t171 -65.5t142 -109t101.5 -138t61 -156.5t20.5 -164q0 -107 -22.5 -189t-58.5 -141.5t-82.5 -98t-103.5 -64.5t-128 -26q-33 0 -73.5 12t-69.5 43.5t-37.5 68.5t-8.5 76 q0 32 4.5 69.5t15.5 96.5h-4q-38 -117 -78.5 -187t-81.5 -107.5t-79.5 -49t-71.5 -11.5q-43 0 -82.5 16.5t-69.5 51t-47.5 88.5t-17.5 129q0 112 31 213.5t92 178t151 122t207 45.5q24 0 52 -1.5t57.5 -4.5t58 -8t53.5 -12q-8 -70 -17.5 -141.5t-17.5 -139.5t-15 -129.5 t-10.5 -101.5t-3.5 -80q0 -42 8 -78t22.5 -55.5t33.5 -26.5t35 -7q38 0 71.5 20.5t65.5 66t54.5 124t22.5 173.5q0 184 -44.5 303.5t-118 190.5t-168.5 105.5t-222 33.5q-51 1 -128 -14.5t-162 -65.5t-154 -142t-105.5 -210.5t-36.5 -247.5q0 -111 22.5 -201.5t63 -161.5 t96.5 -123.5t122 -87t144 -53t145 -18.5q90 0 132 5t109.5 24t129 58t115.5 103l49 -51q-119 -127 -258 -177.5t-274 -50.5q-142 0 -239 24t-180.5 71.5t-146.5 114t-104.5 147.5t-62.5 173.5t-21 190.5zM591 446q0 -103 28 -164t81 -61q37 0 73.5 31t70.5 83.5t63 121.5 t50.5 145t34 154.5t13.5 150.5q-48 19 -127 19q-72 0 -126 -44.5t-89.5 -114.5t-53.5 -155t-18 -166z" />
<glyph unicode="A" horiz-adv-x="1282" d="M-12 0v68q46 0 75 18.5t49 52.5t36.5 81t37.5 104l422 1149h49l457 -1166q9 -21 18.5 -50.5t18 -60.5t13 -61t3.5 -53l140 8v-90h-469v68q57 1 84 21t34 49t0 62t-18 62l-72 192l-533 -12q-22 -63 -39 -115.5t-32 -103.5q-8 -24 -14 -43t-12 -35t-12 -31t-13 -32l160 8 v-90h-383zM364 530h474l-146 392l-92 252h-4l-86 -232q-47 -132 -82.5 -232.5t-63.5 -179.5z" />
<glyph unicode="B" horiz-adv-x="1274" d="M113 0v68q58 1 87 20.5t41 54t12.5 82t0.5 105.5v860q0 56 1.5 96t5.5 66l-148 -9v91q113 2 226 3t237 1q119 0 213 -21t158.5 -64t97.5 -106t33 -160q-1 -50 -22 -100t-63 -93t-105.5 -76t-147.5 -48v-4q113 0 198 -27.5t142 -76t85.5 -115.5t28.5 -146 q0 -94 -36.5 -168.5t-101 -126t-153 -79t-192.5 -27.5h-598zM426 82q24 -2 57 -3t65.5 -1h58.5h36q79 0 144 20t111.5 59t72 97t25.5 135q0 94 -29 156t-77.5 99t-112.5 52t-134 15q-61 0 -111 -1.5t-99 -4.5v-463q0 -56 -1.5 -95t-5.5 -65zM433 784l149 4q88 2 147.5 29 t95.5 70.5t51 95.5t15 115q0 78 -30 134t-74 83.5t-97 38t-104 10.5q-50 0 -80 -10t-46.5 -33.5t-21.5 -61.5t-5 -94v-381z" />
<glyph unicode="C" horiz-adv-x="1432" d="M94 694q0 96 19.5 191t59 180.5t98.5 159t138 127.5t178 84.5t218 30.5q116 0 217 -31t196 -94l-10 110h111v-475h-74q-11 96 -45.5 171.5t-89 127.5t-128.5 79.5t-163 27.5q-109 0 -204.5 -46.5t-166.5 -132t-112 -207.5t-41 -272q0 -97 19.5 -182.5t55.5 -158t86 -130 t111 -97.5t131 -61.5t146 -21.5q67 0 133.5 15t128 45t115.5 74t96 101l53 -43q-66 -91 -141.5 -149t-152 -91.5t-150 -46t-136.5 -12.5q-154 0 -282 56.5t-220 154.5t-143 230.5t-51 285.5z" />
<glyph unicode="D" horiz-adv-x="1526" d="M113 0v68q58 2 87 21t41 52t12.5 78.5t0.5 99.5v885q0 42 1.5 79.5t5.5 68.5l-148 -9v91l483 2q186 0 339.5 -43t264 -132t171.5 -225t61 -321q0 -94 -22 -183.5t-66 -169t-109.5 -146t-152 -114.5t-194.5 -75t-236 -27h-539zM426 82q41 -2 78 -3t66.5 -1h49.5h26 q132 0 240 49t184.5 135.5t118.5 204.5t42 256q0 145 -39.5 262.5t-120.5 201t-204.5 128.5t-292.5 45q-58 0 -87 -18t-41 -50.5t-12.5 -77.5t-0.5 -100v-872q0 -56 -1.5 -95t-5.5 -65z" />
<glyph unicode="E" horiz-adv-x="1274" d="M113 0v68q49 1 77.5 15.5t42.5 39.5t17.5 59.5t3.5 76.5v60v885q0 42 1.5 79.5t5.5 68.5l-148 -9v91h985l10 -359h-67q0 88 -20.5 144t-56 88t-83.5 43.5t-104 11.5l-189 -3q-57 -3 -88.5 -18t-46.5 -44.5t-17.5 -74.5t-2.5 -108v-330h384l-15 177h91v-431h-67 q0 60 -10.5 95.5t-33 55t-57 25.5t-83.5 6h-29t-180 -7v-469q0 -57 -1.5 -95.5t-5.5 -64.5l392 6q67 1 121 16.5t92.5 52t59.5 97t21 151.5h70l-12 -399h-1057z" />
<glyph unicode="F" horiz-adv-x="1122" d="M113 0v68q58 2 87 21t41 52t12.5 78.5t0.5 99.5v885q0 42 1.5 79.5t5.5 68.5l-148 -9v91h950l11 -359h-68q0 91 -22.5 147.5t-61 88t-90.5 41.5q-47 10 -99 10h-10l-149 -4q-57 -2 -86.5 -21.5t-41.5 -53t-12.5 -79t-0.5 -98.5v-354h356l-15 177h91v-431h-67 q0 60 -10.5 95.5t-33 55t-57 25.5t-83.5 6h-29t-152 -7v-429q0 -56 -1.5 -96t-5.5 -66l209 8v-90h-522z" />
<glyph unicode="G" horiz-adv-x="1559" d="M96 686q0 96 19.5 191.5t59 182t98.5 161t138.5 129.5t179 86t218.5 31q55 0 112 -8t112 -22.5t106 -35.5t94 -47l-9 98h113v-469h-74q-7 96 -43 171t-94.5 126t-136 78t-166.5 27q-109 0 -205 -48.5t-167 -135t-112.5 -206t-41.5 -262.5q0 -145 40 -267.5t112.5 -211 t173.5 -138.5t222 -50q41 0 86 6t90.5 18t90 31.5t84.5 46.5v448l-144 -8v90h463v-67q-38 0 -64 -14.5t-42 -37t-24.5 -50t-12 -54.5t-4 -50.5t-0.5 -37.5v-313h-56q-34 0 -90 -12t-131 -41q-32 -12 -70 -22t-77.5 -17t-78.5 -11t-73 -4q-154 0 -282 49.5t-220 142t-143 226 t-51 301.5z" />
<glyph unicode="H" horiz-adv-x="1597" d="M113 0v68q58 2 87 21t41 52t12.5 78.5t0.5 99.5v885q0 42 1.5 79.5t5.5 68.5l-148 -9v91h461v-68q-58 -2 -87 -21.5t-41 -52.5t-12.5 -78t-0.5 -100v-340h733v430q0 86 6 148l-148 -9v91h461v-68q-57 -2 -86.5 -21.5t-41.5 -52.5t-12.5 -78t-0.5 -100v-870 q0 -110 -6 -162l147 8v-90h-461v68q58 2 87.5 21t41.5 52t12.5 78.5t0.5 99.5v374l-733 -9v-440q0 -56 -1.5 -96t-5.5 -66l148 8v-90h-461z" />
<glyph unicode="I" horiz-adv-x="686" d="M113 0v68q58 2 87 21t41 52t12.5 78.5t0.5 99.5v885q0 42 1.5 79.5t5.5 68.5l-148 -9v91h461v-68q-58 -2 -87 -21.5t-41 -52.5t-12.5 -78t-0.5 -100v-870q0 -56 -1.5 -96t-5.5 -66l148 8v-90h-461z" />
<glyph unicode="J" horiz-adv-x="764" d="M-4 113q0 20 5.5 38.5t16.5 33.5t24 22.5t24 10t26 2.5q18 0 35 -8t27.5 -21.5t15.5 -30t5 -31.5q0 -10 -2.5 -22.5t-7.5 -23.5q6 -9 16.5 -15.5t22.5 -10.5t23 -5t19 -1q30 1 53 14t38 41t22.5 72t7.5 107v1067l-209 -9v91h545v-68q-51 0 -82 -15.5t-48 -43t-22.5 -64.5 t-5.5 -80v-663q0 -144 -19 -245.5t-59 -165.5t-103.5 -93t-151.5 -29q-43 0 -82 10t-69 29t-47.5 46t-17.5 61z" />
<glyph unicode="K" horiz-adv-x="1364" d="M113 0v68q58 2 87 21t41 52t12.5 78.5t0.5 99.5v885q0 42 1.5 79.5t5.5 68.5l-148 -9v91h461v-68q-58 -2 -87 -21.5t-41 -52.5t-12.5 -78t-0.5 -100v-336h153l256 404q13 20 29.5 43t35 46t39.5 44.5t42 38.5l-125 -4v84h440v-68q-65 -5 -118 -17.5t-101 -42t-95.5 -81 t-99.5 -135.5l-200 -320q29 -18 52 -38.5t43 -42.5t38 -45.5t37 -47.5l229 -305q58 -78 100 -122.5t76 -67t63 -28t62 -5.5v-68h-250q-15 0 -38 16.5t-50.5 44.5t-58 64.5t-60.5 75.5l-245 331q-39 51 -78 97t-76 69l-100 -2v-452q0 -56 -1.5 -96t-5.5 -66l148 8v-90h-461z " />
<glyph unicode="L" horiz-adv-x="1184" d="M113 0v68q58 2 87 21t41 52t12.5 78.5t0.5 99.5v885q0 42 1.5 79.5t5.5 68.5l-148 -9v91h461v-68q-58 -2 -87 -21.5t-41 -52.5t-12.5 -78t-0.5 -100v-878q0 -56 -1.5 -95t-5.5 -65l383 6q64 1 113.5 20.5t82.5 60.5t50 105.5t17 155.5h69l-12 -424h-1016z" />
<glyph unicode="M" horiz-adv-x="1880" d="M90 0v68q48 1 75 16.5t41.5 41t18.5 59t6 71.5l45 1095l-147 -5v88h313q71 -161 135.5 -310t126.5 -293.5t123.5 -288t126.5 -292.5h4q12 28 25.5 62t27.5 70t27.5 70t24.5 62q89 224 186.5 451t192.5 469h303v-68h-6q-35 0 -61 -10q-28 -12 -46 -38t-26 -69 q-5 -28 -4 -65q0 -19 1 -41l54 -932q2 -36 3 -68.5t0 -59.5l150 7v-90h-459v68q48 1 76 17.5t42.5 47.5t17.5 75q2 22 1.5 48t-1.5 55l-53 873q-6 -15 -13 -31.5t-14 -34.5l-461 -1138h-61q-67 150 -135 300t-134.5 302t-131 306.5t-124.5 313.5l-2 -90q-2 -49 -3.5 -112.5 t-4 -135.5t-4.5 -150t-4 -157t-4 -155.5t-3 -145.5q-1 -46 -2 -91t-6 -83l154 8v-90h-391z" />
<glyph unicode="N" horiz-adv-x="1561" d="M117 0v68q47 0 74 16.5t40.5 40.5t17 52t3.5 52l2 1123l-137 -9v91h244l872 -1167h2l2 937q0 86 6 148l-147 -9v91h377v-68q-58 -2 -86.5 -21.5t-40.5 -52.5q-11 -32 -11 -74l1 -104l-4 -1147h-99l-889 1195h-3l7 -877q0 -53 -0.5 -103.5t-3.5 -99.5l148 8v-90h-375z" />
<glyph unicode="O" d="M94 717q0 86 19 175t58 172.5t98 156.5t138 128t179 86.5t221 31.5q125 0 227.5 -32t183.5 -86.5t140.5 -128t99 -157t59 -172.5t19.5 -174t-19.5 -173.5t-58 -172t-97.5 -157t-138.5 -128.5t-179 -87t-220.5 -32q-130 0 -234.5 31t-185.5 84.5t-139.5 126t-96 155.5 t-55.5 173.5t-18 179.5zM295 754q0 -76 14 -157.5t42.5 -159.5t72 -148.5t103 -123t134 -83.5t166.5 -31q84 0 154 25.5t126 70t98 105t70 130t42.5 148.5t14.5 148q0 74 -16 164t-47 168.5t-76 147t-104 119t-131.5 79.5t-157.5 29q-126 0 -221 -56t-158 -146t-94.5 -202.5 t-31.5 -226.5z" />
<glyph unicode="P" horiz-adv-x="1240" d="M113 0v68q58 2 87 21t41 52t12.5 78.5t0.5 99.5v885q0 42 1.5 79.5t5.5 68.5l-148 -9v91q108 2 222 2.5t235 0.5q298 0 453 -100q166 -109 166 -319q0 -43 -9.5 -95t-38.5 -107.5t-79.5 -106t-127 -88t-182.5 -60t-246 -22.5h-31.5t-41.5 1v-296q0 -56 -1.5 -96t-5.5 -66 l189 10v-92h-502zM433 625q38 -5 66.5 -6t66.5 -1q87 0 164.5 26t135 75.5t91 120.5t33.5 161q0 97 -31 165t-87 110.5t-134 61.5t-172 19q-55 0 -82.5 -17.5t-39 -49.5t-11.5 -76.5v-99.5v-489z" />
<glyph unicode="Q" horiz-adv-x="1630" d="M94 717q0 86 19 175t58 172.5t98 156.5t138 128t179 86.5t221 31.5q125 0 227.5 -32t183.5 -86.5t140.5 -128t99 -157t59 -172.5t19.5 -174t-19.5 -173.5t-58 -172t-97.5 -157t-138.5 -128.5t-179.5 -87q-26 -8 -53 -14q5 -1 9 -1q36 -1 68.5 -6t65.5 -18.5t69 -38.5 t80 -66q71 -66 120 -111t85 -72.5t64 -39t58 -11.5v-67h-65q-56 0 -99 2t-82 12.5t-78 33.5t-87 66q-69 62 -120 116.5t-94.5 95t-84.5 64t-90 23.5q-122 2 -221 31q-104 31 -185 84.5t-139.5 126t-96 155.5t-55.5 173.5t-18 179.5zM295 754q0 -76 14 -157.5t42.5 -159.5 t72 -148.5t103 -123t134 -83.5t166.5 -31q84 0 154 25.5t126 70t98 105t70 130t42.5 148.5t14.5 148q0 74 -16 164t-47 168.5t-76 147t-104 119t-131.5 79.5t-157.5 29q-126 0 -221 -56t-158 -146t-94.5 -202.5t-31.5 -226.5z" />
<glyph unicode="R" horiz-adv-x="1286" d="M113 0v68q58 2 87 21t41 52t12.5 78.5t0.5 99.5v885q0 42 1.5 79.5t5.5 68.5l-148 -9v91q116 2 233 3h78q78 0 158 -1q148 -3 253.5 -28.5t173 -72.5t99 -114t31.5 -152q0 -60 -16 -122.5t-59 -118.5t-117.5 -100t-191.5 -68q40 -29 72 -74t70 -105l140 -219 q26 -41 50 -76.5t52.5 -61.5t64 -41t83.5 -15v-68h-258q-30 26 -54 52t-45.5 54t-41.5 57.5t-42 63.5l-137 219q-14 22 -29 47.5t-32 51.5t-36 50.5t-40 44.5q-27 -2 -55 -2h-14q-35 0 -70 4v-398q0 -56 -1.5 -96t-5.5 -66l148 8v-90h-461zM433 720q31 -2 61 -4q13 -1 27 -1 q18 0 39 2q84 3 153.5 21.5t120 57.5t78.5 100.5t28 150.5q0 154 -88.5 232.5t-277.5 78.5q-58 0 -87 -17.5t-41 -49.5t-12.5 -77t-0.5 -100v-394z" />
<glyph unicode="S" horiz-adv-x="1161" d="M119 420h79q6 -91 39 -159.5t86.5 -114.5t124.5 -69.5t152 -23.5q60 0 113.5 16.5t94 49t64 80.5t23.5 110q0 75 -33 129t-87.5 95.5t-124 75t-141.5 67t-141.5 71t-124 87t-87.5 115.5t-33 157q0 35 8 75t26.5 80t49 77.5t76.5 66t109 45.5t146 17q40 0 85 -5t91.5 -17 t92.5 -32.5t88 -51.5l-8 88h104v-449h-74q-5 74 -28.5 143.5t-68.5 123t-111 86t-156 32.5q-64 0 -113 -19.5t-82 -52.5t-50 -76.5t-17 -91.5q0 -70 33.5 -121.5t88.5 -91.5t125 -73t143 -66.5t143 -72t125 -89t88.5 -117.5t33.5 -158q0 -85 -32 -156.5t-93 -123 t-150.5 -80.5t-203.5 -29q-46 0 -94.5 6.5t-96 19.5t-92 33t-82.5 46l10 -88h-106z" />
<glyph unicode="T" horiz-adv-x="1311" d="M45 1001l12 433h1194l12 -433h-77q-2 91 -14 158.5t-42 112t-81 66.5t-130 22l-173 -1l-3 -1115q0 -110 -6 -162l170 8v-90h-481v68q57 2 86 22t41 53.5t12 78.5v97l3 1038l-212 -1q-65 0 -109.5 -21.5t-72.5 -65.5t-40.5 -110.5t-12.5 -157.5h-76z" />
<glyph unicode="U" horiz-adv-x="1540" d="M63 1346v88h460v-68q-52 0 -80.5 -17.5t-42 -42.5t-16 -53t-2.5 -49v-516q0 -76 6 -150.5t22.5 -141.5t46 -124t76.5 -99t114 -65.5t159 -23.5q111 0 190.5 40t131 112.5t76 172.5t26.5 220l8 575q0 86 6 148l-147 -9v91h381v-68q-58 -2 -87.5 -21.5t-41.5 -52.5 t-12.5 -78t-0.5 -100l-4 -475q-1 -134 -29.5 -255.5t-93 -214t-169.5 -147.5t-259 -55q-164 0 -275 43t-178.5 132.5t-96.5 227.5t-29 328v416q0 27 0.5 60t2 66t2.5 62.5t3 49.5z" />
<glyph unicode="V" horiz-adv-x="1337" d="M-8 1343v91h475v-68l-2 -2q-51 -3 -81 -19t-42 -44q-8 -18 -8 -42q0 -11 2 -25q6 -40 27 -91q24 -61 47 -118.5t46.5 -115.5t48 -118t52.5 -125q25 -58 49.5 -114t46 -107t40 -96t30.5 -79h4q273 770 319 902t70 180l-157 -9v91h415v-68q-45 -2 -79 -13t-60 -34.5 t-47 -61t-55.5 -134.5t-86 -239t-95 -261.5t-101.5 -278t-133 -364.5h-57l-465 1089q-23 52 -38 93.5t-25.5 75t-16 60.5t-8.5 50z" />
<glyph unicode="W" horiz-adv-x="2038" d="M14 1343v91h497v-68q-60 -3 -94.5 -15t-48.5 -38q-11 -21 -11 -52q1 -7 1 -15q4 -42 20 -103q57 -187 143.5 -437.5t101.5 -293t30 -90.5h4q10 34 22 73t23.5 76t68.5 214t84.5 261t52 159.5t105.5 332.5h66q100 -316 126 -392t122.5 -364t125.5 -385h5 q212 642 259.5 789.5t63 188t35.5 75.5l-164 -7v91h416v-68q-52 -6 -86 -18.5t-60.5 -44.5t-51 -89t-176.5 -513t-249 -721h-61l-383 1095l-361 -1095h-59q-383 1143 -397.5 1184.5t-25 74.5t-17.5 59.5t-11 49.5z" />
<glyph unicode="X" horiz-adv-x="1329" d="M18 1343v91h530v-68l-90 -4q-56 -3 -76.5 -18.5t-20 -38.5t16 -52t33.5 -57q73 -112 144 -211.5t111 -154.5q274 394 297.5 425.5t44 56.5t36.5 40l-172 -9v91h403v-68q-49 -7 -93 -35t-84 -68t-75.5 -88t-299.5 -422l360 -477l141 -190l119 4v-90h-502v68q11 -1 20 -1 q44 -1 67 11q28 14 34 36.5t-5.5 50t-29.5 52.5l-300 398q-241 -357 -280.5 -416.5t-89.5 -118.5l170 10v-90h-403v68q49 10 86 30.5t69 51t62 71.5t65 92l265 381q-89 126 -198.5 279t-138 195t-48 73t-31.5 55t-23 52z" />
<glyph unicode="Y" horiz-adv-x="1298" d="M-12 1343v91h528v-68q-71 0 -108 -16.5t-48 -45.5q-4 -13 -4 -29q0 -19 8 -42q13 -41 44 -90q38 -61 72 -115.5t68 -107.5t70.5 -108t80.5 -116h4q229 436 273 516t58 101t29 37l-162 -7v91h418v-68q-51 -3 -91 -20t-75 -49.5t-67.5 -81t-326.5 -601.5q-1 -99 -1 -234 q-1 -46 -1 -76q0 -60 1 -60q0 -110 -6 -162l170 8v-90h-481v68q57 2 86 22t41 53.5t12 78.5v97l1 234l-355 563q-53 82 -78 137.5t-33 94.5z" />
<glyph unicode="Z" horiz-adv-x="1249" d="M88 0v94q58 81 131 184t163.5 234.5t198 295.5t234.5 366q29 46 61 92.5t70 91.5l-522 -8q-61 -3 -106 -23.5t-75 -62t-45 -104.5t-15 -150h-70l12 424h1016v-72l-735 -1116q-23 -33 -41.5 -58t-35 -45t-32 -36t-31.5 -31l498 8q67 1 125.5 21t101 61.5t67 104.5 t24.5 149h69l-12 -420h-1051z" />
<glyph unicode="[" horiz-adv-x="735" d="M162 -522l2 2068h543v-123l-390 -6l-9 -1810l403 -6v-123h-549z" />
<glyph unicode="\" horiz-adv-x="1413" d="M43 1473l1210 -2029l119 75l-1197 2037z" />
<glyph unicode="]" horiz-adv-x="735" d="M25 1423v123h549l-2 -2068h-543v123l390 6l9 1810z" />
<glyph unicode="^" horiz-adv-x="1686" d="M123 904l631 563h182l627 -573h-181l-545 500l-546 -490h-168z" />
<glyph unicode="_" horiz-adv-x="1493" d="M117 -102l1259 -9v-116h-1259v125z" />
<glyph unicode="`" horiz-adv-x="516" d="M93 1493q0 13 3.5 24t13.5 24t25.5 19.5t32 6.5t39 -11.5t45.5 -44.5l172 -276l-57 -47l-230 217q-26 27 -35 50q-3 7 -6 17t-3 21z" />
<glyph unicode="a" horiz-adv-x="1057" d="M70 210q0 63 27.5 115t74 92.5t108.5 70t132 48.5q70 20 142 28q65 8 126 7h15v128q0 53 -6 103t-26.5 91t-64 65t-100.5 24q-33 0 -63 -5.5t-59 -18.5t-52.5 -34t-38.5 -50q15 -17 20.5 -37.5t5.5 -39.5q0 -12 -5 -27.5t-15.5 -29t-27 -22t-44.5 -8.5q-40 0 -63.5 29.5 t-23.5 71.5q0 51 30 96t84 78.5t128.5 52.5t162.5 19q172 0 253.5 -91t80.5 -289l-2 -460q0 -32 -1.5 -64.5t-6.5 -74.5l145 8v-86h-293q-6 35 -9 61t-5 55q-69 -69 -150.5 -109t-172.5 -40q-77 0 -134.5 18.5t-95.5 51.5t-57 77.5t-19 95.5zM265 235q1 -38 14.5 -66.5 t35 -47t49.5 -28t60 -9.5q41 0 77 8t68.5 23.5t63 37.5t61.5 51v297q-47 -2 -97.5 -8.5t-99 -20t-91.5 -34.5t-75 -50t-50 -67q-16 -35 -16 -77v-9z" />
<glyph unicode="b" horiz-adv-x="1192" d="M16 1405v86q67 0 111.5 4.5t72.5 12.5t44 17.5t28 20.5h59v-611q57 57 135.5 89.5t175.5 32.5q98 0 182.5 -36.5t147 -104t98 -164t35.5 -216.5q0 -131 -44.5 -236t-118 -179t-170 -114t-199.5 -40q-35 0 -74 5.5t-79 20t-78 38.5t-70 61l-49 -92h-72l4 1280q0 32 0.5 62 t5.5 71zM331 322q0 -82 20 -134.5t54 -83t77.5 -42t90.5 -11.5q74 0 133.5 31.5t101 89t64 137.5t22.5 177q0 103 -19.5 189.5t-58.5 148.5t-98 97t-139 35q-68 0 -134 -31.5t-114 -84.5v-518z" />
<glyph unicode="c" horiz-adv-x="1090" d="M84 494q0 71 17.5 140t50.5 131.5t80 116t106.5 92.5t130 61t149.5 22q85 0 155 -21t120 -56t77 -80.5t27 -95.5q0 -44 -24.5 -75.5t-70.5 -32.5q-27 -1 -45 8.5t-29 23.5t-16 30.5t-5 29.5q0 20 6.5 42t24.5 41q-14 36 -41 57.5t-58.5 33.5t-63 15.5t-52.5 3.5 q-70 0 -130.5 -28.5t-104.5 -83.5t-69.5 -137t-25.5 -188q0 -102 25.5 -188.5t71.5 -149t111 -97.5t144 -35q48 0 95 13.5t89 37.5t77.5 56t60.5 69l53 -41q-41 -64 -93.5 -109.5t-110 -75t-116 -43.5t-110.5 -14q-104 0 -196 35.5t-161 103t-109 165.5t-40 223z" />
<glyph unicode="d" horiz-adv-x="1225" d="M86 483q0 125 39.5 230.5t109.5 182t166.5 119t210.5 42.5q34 0 68 -5t65.5 -13t58.5 -18t47 -21l1 280q0 32 0.5 62t5.5 71l-145 -8v86q67 0 111 4.5t72 12.5t43.5 17.5t27.5 20.5h59v-1329q0 -32 -1.5 -64.5t-6.5 -74.5l145 8v-86h-293q-5 30 -8 56t-5 51 q-59 -64 -142.5 -102t-186.5 -38q-95 0 -175.5 36t-140 103t-93 162.5t-33.5 214.5zM297 502q0 -83 22.5 -168.5t61 -143t94 -90t127.5 -32.5q34 0 69 10t67.5 28t61 42.5t51.5 53.5q-1 25 -1 53v60l1 590q-49 38 -107 54.5t-119 16.5q-77 0 -139 -34t-105.5 -96.5 t-63.5 -142.5t-20 -201z" />
<glyph unicode="e" horiz-adv-x="1110" d="M86 510q0 108 37 206.5t105 174.5t163 121t211 45q85 0 160.5 -28t132.5 -84t90 -141.5t33 -199.5l-721 -12v-12q0 -111 18 -202q19 -96 60 -164t105.5 -105t154.5 -37q48 0 98 13t96.5 35.5t85.5 54t65 67.5l50 -41q-42 -64 -97.5 -108.5t-115 -72.5t-119.5 -40.5 t-112 -12.5q-106 0 -197.5 38t-158.5 109t-105.5 171t-38.5 225zM303 678h522q0 54 -12 107.5t-38.5 96t-68.5 69t-102 26.5q-120 0 -198 -70.5t-103 -228.5z" />
<glyph unicode="f" horiz-adv-x="692" d="M51 932v92h168v43q0 114 19.5 204.5t63.5 153.5t114.5 97t171.5 34q33 0 71.5 -8.5t71 -27t54.5 -47t22 -68.5q0 -41 -24 -67t-61 -26q-26 0 -42 8.5t-26.5 21.5t-15 28t-4.5 27t2.5 24.5t8.5 25.5q-15 20 -40.5 28t-47.5 8q-48 0 -79 -21.5t-49 -56.5t-25.5 -78.5 t-7.5 -87.5v-215h276v-80l-276 -5l2 -722q0 -41 -1 -72.5t-8 -66.5l129 6v-84h-417v61q47 0 71.5 18.5t35.5 51.5t12 79t1 101l-2 624z" />
<glyph unicode="g" horiz-adv-x="1133" d="M72 -278q0 47 18 86t45.5 70t61 53.5t64.5 36.5q-66 20 -104 57.5t-38 103.5q0 36 15 70.5t42 63.5t64.5 49t82.5 28q-47 22 -85 53.5t-65 71t-41.5 86.5t-14.5 101q0 92 37.5 167t98 128t138 81.5t157.5 28.5q69 0 136 -19.5t124 -57.5q15 43 41 80t58.5 63.5t70.5 41.5 t79 15q52 0 80.5 -27t28.5 -75q0 -12 -5 -27t-15.5 -28t-27.5 -22t-41 -8q-35 1 -57 21.5t-28 50.5q-26 -4 -46 -16.5t-35 -31.5t-24.5 -41.5t-14.5 -45.5q51 -47 80.5 -110t29.5 -134q0 -87 -35.5 -159.5t-95.5 -125t-138.5 -81.5t-164.5 -29q-38 0 -67.5 5t-69.5 5 q-38 0 -69.5 -10t-53 -27.5t-28.5 -34t-7 -28.5t4 -25q7 -24 32.5 -39t66.5 -23.5t97.5 -12.5t127.5 -7q118 -5 211.5 -22.5t158.5 -53t99.5 -92t34.5 -139.5t-44.5 -146.5t-116 -107t-161 -66t-180.5 -22.5q-138 0 -235.5 24t-158.5 63.5t-89 89t-28 100.5zM233 -254 q0 -51 24.5 -91.5t70 -69.5t110 -44.5t143.5 -15.5q88 0 157.5 18t117.5 48t73 69.5t25 83.5q0 57 -29.5 92.5t-82 56t-124 29t-156.5 11.5q-57 2 -110 5t-101 11q-57 -37 -87.5 -90t-30.5 -113zM313 696q0 -74 16 -134.5t47 -104.5t76 -68t102 -24t99.5 21t71 58.5t43 89 t14.5 111.5q0 67 -15 129t-45 108.5t-74.5 74.5t-103.5 28q-55 0 -98 -22t-72.5 -61t-45 -92t-15.5 -114z" />
<glyph unicode="h" horiz-adv-x="1227" d="M53 1405v86q67 0 111.5 4.5t72.5 12.5t44 17.5t28 20.5h59v-624q34 28 74 53t83.5 43t89 28.5t89.5 10.5q89 0 153 -27.5t104.5 -84t60 -143t20.5 -203.5l2 -382q0 -41 -1 -72.5t-7 -66.5l129 6v-84h-418v61q47 0 71.5 18.5t35.5 51.5t12.5 79t1.5 101v286 q0 177 -56 264.5t-178 87.5q-35 0 -74 -10t-73.5 -27t-65 -40t-53.5 -50v-605q0 -41 -2 -72.5t-8 -66.5l129 6v-84h-418v61q47 0 72 18.5t36.5 51.5t13 79t1.5 101v969q0 32 0.5 62t5.5 71z" />
<glyph unicode="i" horiz-adv-x="575" d="M74 903v86q67 0 111 4.5t72 12.5t43.5 17.5t27.5 20.5h59v-827q0 -41 -1 -72.5t-7 -66.5l129 6v-84h-418v61q47 0 71.5 18.5t35.5 51.5t12.5 79t1.5 101v467q0 32 1.5 62t6.5 71zM185 1368q0 26 9 48.5t24.5 39.5t35.5 26.5t43 9.5t42.5 -9.5t34.5 -26.5t23.5 -39.5 t8.5 -48.5q0 -25 -9.5 -47t-24.5 -38.5t-35 -25.5t-42 -9t-42 9t-35.5 25.5t-24 38.5t-8.5 47z" />
<glyph unicode="j" horiz-adv-x="526" d="M-180 -441q0 38 24.5 67.5t63.5 29.5q25 0 42 -8.5t27.5 -21.5t15 -28.5t4.5 -27.5v-9.5t-1 -9.5q29 -12 52 -12q13 0 35 5.5t49 29.5q34 32 46.5 97.5t12.5 151.5l4 955q0 32 0.5 62t5.5 71l-145 -8v86q67 0 111.5 4.5t72.5 12t44 17.5t28 21h59v-1051 q0 -143 -29.5 -246.5t-82 -170.5t-123.5 -99t-154 -32q-42 0 -73 9.5t-50.5 25.5t-29 36.5t-9.5 42.5zM161 1368q0 26 9 48.5t24.5 39.5t35.5 26.5t43 9.5t42.5 -9.5t34.5 -26.5t23.5 -39.5t8.5 -48.5q0 -25 -9.5 -47t-24.5 -38.5t-35 -25.5t-42 -9t-42 9t-35.5 25.5 t-24 38.5t-8.5 47z" />
<glyph unicode="k" horiz-adv-x="1100" d="M53 1405v86q67 0 111 4.5t72 12.5t43.5 17.5t27.5 20.5h59v-968h82l250 262q34 35 63 62.5t58 45.5l-140 -6v82h373v-61q-52 -6 -99.5 -29.5t-89 -55.5t-76.5 -67l-63 -63l-159 -168q40 -19 69 -47t58 -64l145 -186q6 -8 20.5 -28t34 -44.5t43.5 -51t49.5 -48.5t51 -36 t49.5 -14v-61h-186q-28 0 -55 16.5t-53.5 43.5t-53 61.5t-54.5 71.5q-81 110 -137 190.5t-96 118.5l-84 -4v-281q0 -41 -1 -72.5t-7 -66.5l131 6v-84h-418v61q47 0 71.5 18.5t35 51.5t12.5 79t2 1070q0 32 0.5 62t5.5 71z" />
<glyph unicode="l" horiz-adv-x="557" d="M51 1405v86q67 0 111.5 4.5t72.5 12.5t44 17.5t28 20.5h59l2 -1329q0 -41 -2 -72.5t-8 -66.5l129 6v-84h-418v61q47 0 71.5 18.5t35.5 51.5t12.5 79t1.5 101v969q0 32 0.5 62t5.5 71z" />
<glyph unicode="m" horiz-adv-x="1831" d="M74 903v86q67 0 109 4.5t67.5 12.5t39.5 17.5t26 20.5h59q2 -20 4 -46t4 -63q31 26 67 48.5t74.5 39t79 25.5t80.5 9q104 0 173 -37.5t108 -100.5q34 29 75 54t85 44t90 29.5t90 10.5q89 0 154.5 -26t108 -81.5t62.5 -142.5q18 -79 17 -186v-22l-2 -382q0 -41 -1 -72.5 t-7 -66.5l129 6v-84h-418v61q47 0 71.5 18.5t35.5 51.5t12.5 79t1.5 101v286q0 177 -56 264.5t-178 87.5q-64 0 -127.5 -29t-110.5 -72q21 -69 21 -149l-4 -482q0 -41 -1 -72.5t-7 -66.5l129 6v-84h-418v61q47 0 71.5 18.5t35 51.5t12 79t2.5 101l2 286v7q0 171 -52 259 q-52 90 -173 90q-63 0 -124.5 -27.5t-104.5 -71.5q0 -24 0.5 -51.5t0.5 -58.5v-527q0 -41 -1 -72.5t-7 -66.5l129 6v-84h-418v61q47 0 71.5 18.5t35.5 51.5t12.5 79t1.5 101v467q0 32 1 65t7 68z" />
<glyph unicode="n" horiz-adv-x="1243" d="M76 903v86q67 0 109 4.5t67.5 12.5t39.5 17.5t26 20.5h59q2 -23 4.5 -52.5t4.5 -71.5q33 29 72.5 54t82.5 43.5t88.5 29t89.5 10.5q178 0 260 -111.5t82 -346.5v-382q0 -41 -1 -72.5t-7 -66.5l129 6v-84h-418v61q47 0 71.5 18.5t35.5 51.5t12.5 79t1.5 101v286 q-2 177 -58 266.5t-178 89.5q-37 0 -74 -11t-71 -28.5t-64 -41.5t-52 -52q1 -18 1 -38.5v-41.5l-2 -523q0 -41 -1 -72.5t-7 -66.5l129 6v-84h-418v61q47 0 71.5 18.5t35 51.5t12 79t2.5 101l2 467q0 32 1 65t7 68z" />
<glyph unicode="o" horiz-adv-x="1198" d="M84 487q0 121 39.5 225.5t108.5 181t163 120t203 43.5q108 0 202 -39.5t163.5 -109t110 -165t40.5 -206.5q0 -119 -39.5 -223t-109 -181t-164 -121.5t-203.5 -44.5q-108 0 -201.5 38.5t-163 107.5t-109.5 164.5t-40 209.5zM293 547q0 -95 19.5 -185t59.5 -159.5 t100.5 -111.5t141.5 -42t136.5 36.5t90 96.5t49.5 137t15 158q0 92 -17 182t-54 161t-95.5 115t-140.5 44q-81 0 -138.5 -36t-94.5 -96t-54.5 -138t-17.5 -162z" />
<glyph unicode="p" horiz-adv-x="1223" d="M59 903v86q67 0 109 4.5t67.5 12.5t39.5 17.5t25 20.5h60q2 -20 4 -47t4 -63q31 27 68.5 50t79 39t84.5 25t86 9q89 0 170.5 -35t143.5 -100.5t99 -160t37 -213.5q0 -87 -19.5 -164t-54.5 -141.5t-83.5 -115.5t-106.5 -86.5t-123.5 -54.5t-134.5 -19q-142 0 -245 67 l-1 -339q0 -41 -1 -72.5t-7 -66.5l129 6v-84h-418v61q47 0 71.5 18.5t35 51.5t12 79t2.5 101l4 989q0 32 1 65t7 68zM370 129q51 -38 112 -59t128 -21q73 0 131 35t99 97.5t63 148t22 187.5q0 83 -17.5 162t-55 141t-96.5 99.5t-143 37.5q-36 0 -70 -9.5t-65 -25 t-58.5 -36.5t-48.5 -44q0 -8 0.5 -18.5t0.5 -35.5v-70.5t-0.5 -122t-1 -190.5t-0.5 -276z" />
<glyph unicode="q" horiz-adv-x="1180" d="M86 489q0 128 41.5 233t112.5 179.5t167 115t205 40.5q63 0 116 -13.5t98 -23.5q37 -8 68 -8h12q36 2 63 32h57l2 -1349q0 -41 -1 -72.5t-7 -66.5l129 6v-84h-418v61q47 0 71.5 18.5t35.5 51.5t12.5 79t1.5 101v307q-54 -61 -131.5 -95t-175.5 -34q-96 0 -179.5 37 t-146 105t-98 164.5t-35.5 215.5zM297 539q0 -99 21.5 -184.5t63 -149.5t101 -100.5t135.5 -36.5q68 0 130 35.5t104 94.5v537q0 62 -12 108.5t-40 77t-72.5 46t-110.5 15.5q-75 0 -134.5 -32t-100.5 -90.5t-63 -140t-22 -180.5z" />
<glyph unicode="r" horiz-adv-x="887" d="M74 905v84h63q44 0 73 4.5t48.5 12.5t32.5 17.5t25 20.5h59q3 -32 5.5 -79.5t4.5 -122.5q23 38 59 76.5t81 69t97 50t107 19.5q28 0 54.5 -7.5t46 -23.5t31.5 -40t12 -58q0 -14 -5.5 -31t-18 -32t-31.5 -25t-47 -10q-23 0 -41.5 10t-31 25.5t-18 36t-2.5 43.5h-5 q-37 -1 -74 -15q-40 -16 -78.5 -45.5t-72.5 -71.5t-61 -93l2 -503q0 -41 -1 -72.5t-7 -66.5l129 6v-84h-420v61q47 0 71.5 18.5t35.5 51.5t12.5 79t1.5 101v468q0 32 1 64.5t7 67.5z" />
<glyph unicode="s" horiz-adv-x="948" d="M106 338h63q4 -64 29.5 -117.5t67 -92t95 -60t113.5 -21.5q39 0 78.5 9.5t72 29.5t53 50.5t20.5 72.5q0 49 -25.5 83.5t-67 61t-95 47.5t-109 43t-108.5 48.5t-94.5 62.5t-67 86t-25.5 119q0 43 16 94.5t56 96.5t107.5 75.5t170.5 30.5q28 0 59.5 -4t64.5 -14.5t66 -27.5 t65 -42l-5 78h86v-359h-64q-4 53 -20.5 105t-48 93.5t-79.5 67.5t-114 26q-48 0 -85 -12.5t-62.5 -34t-38.5 -49.5t-13 -59q0 -50 25.5 -86t67.5 -64t96 -50.5t110 -46t110 -50t96 -62.5t67.5 -84t25.5 -114q0 -77 -31 -134t-81.5 -94t-114 -55t-128.5 -18q-104 0 -183 27.5 t-130 62.5l7 -71h-86z" />
<glyph unicode="t" horiz-adv-x="793" d="M43 936v88q54 1 98 29.5t77.5 71t56.5 92.5t36 94h70q0 -82 -0.5 -153t-0.5 -134h345v-80l-345 -4q-1 -133 -1 -227t-0.5 -157t-0.5 -99.5t-0.5 -55.5t-0.5 -24.5v-6.5q0 -70 7.5 -123.5t25.5 -90t47.5 -55t74.5 -18.5q53 0 105 32t92 91l55 -45q-45 -68 -89.5 -106.5 t-84.5 -58t-74.5 -24.5t-60.5 -5q-31 0 -63.5 5t-64 19.5t-59 41t-48.5 68.5t-33 102q-11 55 -11 130v12l4 592z" />
<glyph unicode="u" horiz-adv-x="1223" d="M53 905v84h64q43 0 74 4.5t53 12.5t36.5 17.5t26.5 20.5h59v-624q0 -89 12 -154.5t38.5 -109t68.5 -64t103 -20.5q39 0 76.5 13t71.5 35t63.5 50t50.5 60v85v440q0 50 2 85.5t8 70.5l-147 -6v84h63q44 0 75 4.5t53 12.5t36.5 17.5t26.5 20.5h59l-2 -774q0 -16 -0.5 -40.5 t-1.5 -51t-2.5 -53t-3.5 -47.5l147 8v-86h-293q-5 35 -8.5 64.5t-5.5 58.5q-32 -32 -71 -60.5t-82.5 -49.5t-89.5 -33.5t-91 -12.5q-84 0 -147 22.5t-105 74.5t-63 137.5t-21 212.5v364q0 32 1 65t7 68z" />
<glyph unicode="v" horiz-adv-x="1034" d="M12 940v84h377v-61q-47 0 -67 -19q-21 -18 -23 -50v-9q1 -28 11 -64q12 -41 32 -86l157 -360q16 -35 31 -73.5t31 -77.5h2q11 30 23.5 64t24.5 68l163 449q17 49 34.5 86t26.5 55l-131 -6v84h324v-61q-34 0 -59 -17.5t-47 -52t-44 -86.5t-49 -121l-268 -692h-82l-293 668 q-25 58 -41.5 103t-26 79.5t-13.5 59t-5 42.5z" />
<glyph unicode="w" horiz-adv-x="1640" d="M12 940v84h434v-61q-46 -2 -70 -18.5t-32 -45.5q-4 -15 -3 -33q0 -17 3 -36q7 -40 24 -89l161 -484q236 700 257 767h84l273 -782q210 609 224.5 645.5t33.5 59.5l-119 -7v84h356v-61q-53 -3 -87 -15.5t-56 -33t-36.5 -49t-27.5 -65.5l-295 -806h-82l-268 775l-266 -775 h-78l-268 786q-23 65 -35.5 103.5t-17.5 62.5z" />
<glyph unicode="x" horiz-adv-x="1085" d="M45 940v84h422v-61q-46 -2 -72.5 -12t-31.5 -31.5t11 -56.5t54 -87l119 -162q256 313 278 334l-141 -8v84h336v-61q-42 -12 -73.5 -29.5t-60 -43t-288.5 -335.5l282 -351q24 -30 45.5 -59t44.5 -67l93 6v-84h-396v61q25 0 44 5.5t27.5 18t4 31.5t-25.5 46l-216 266 q-209 -286 -218.5 -298t-20.5 -24t-26 -28l157 6v-84h-344v61q31 8 55 21t45.5 33t298.5 379q-252 336 -274 379t-33 72z" />
<glyph unicode="y" horiz-adv-x="1081" d="M8 940v84h424v-61l-9 -1q-43 -3 -65.5 -19t-27.5 -45q-2 -10 -2 -21q0 -24 8 -57q11 -47 281 -613q213 621 226.5 653t26 56t23.5 32l-141 -8v84h321v-61q-38 -15 -65.5 -38.5t-48.5 -57t-39 -76.5t-293 -809q-47 -129 -86 -229.5t-81.5 -168.5t-93 -103.5t-118.5 -35.5 q-32 0 -60 7.5t-49 23t-33 39t-12 54.5q0 19 6 37t17.5 32t28 22.5t36.5 8.5q24 0 40.5 -9t26.5 -23t14 -29.5t4 -27.5q0 -6 -0.5 -13.5t-2.5 -14.5q11 -5 23 -5q18 0 46.5 15.5t57.5 65.5q26 45 62.5 134.5t81.5 214.5q-347 743 -366 788t-31.5 79t-20 59t-10.5 42z" />
<glyph unicode="z" horiz-adv-x="1047" d="M82 0v84q620 798 635.5 816t29 32t23.5 20l-385 -6q-57 -1 -94 -24t-59.5 -62t-34.5 -91.5t-21 -111.5h-63l24 367h803v-66l-577 -759q-13 -17 -24.5 -31t-23.5 -27.5t-26 -27t-33 -29.5l395 -6h5q60 0 102 22q43 23 71 63t43.5 94t24.5 116h60l-25 -373h-850z" />
<glyph unicode="{" horiz-adv-x="684" d="M14 486v106h47q57 0 95 11.5t60.5 35.5t32 61.5t9.5 90.5q0 81 -10.5 166.5t-10.5 176.5q0 108 17.5 187.5t59.5 131.5t112.5 77.5t175.5 25.5h57v-70h-23q-72 0 -118.5 -19t-74 -59t-38 -100.5t-10.5 -144.5q0 -17 1 -37.5t3 -43.5l13 -139q5 -48 8 -80t2 -50 q0 -64 -19.5 -111.5t-51.5 -80.5t-73.5 -52.5t-85.5 -27.5v-4q44 -9 85.5 -30t73.5 -55.5t51.5 -83t19.5 -112.5q0 -24 -2 -56.5t-5 -69.5q-13 -152 -15 -177.5t-3 -42.5t-1.5 -29.5t-0.5 -25.5q0 -87 11 -153t39.5 -110.5t77.5 -67t124 -22.5h12v-57h-57q-105 0 -175.5 28 t-112.5 83t-59.5 137t-17.5 190q0 45 3.5 97.5t7 105.5t7 103t3.5 90q0 52 -9.5 91t-32 64.5t-60.5 38.5t-95 13h-47z" />
<glyph unicode="|" horiz-adv-x="473" d="M162 1556h153l-8 -2111h-139z" />
<glyph unicode="}" horiz-adv-x="684" d="M25 -498h12q75 0 124 22.5t77.5 67t39.5 110.5t11 153q0 13 -0.5 25.5t-1.5 29.5t-3 42.5t-15 177.5q-3 37 -5 69.5t-2 56.5q0 64 19.5 112.5t51.5 83t73.5 55.5t85.5 30v4q-44 8 -85.5 27.5t-73.5 52.5t-51.5 80.5t-19.5 111.5q-1 18 2 50t8 80l13 139q2 23 3 43.5 t1 37.5q0 84 -10.5 144.5t-38 100.5t-74 59t-118.5 19h-23v70h57q105 0 175.5 -25.5t112.5 -77.5t59.5 -131.5t17.5 -187.5q0 -91 -10.5 -176.5t-10.5 -166.5q0 -53 9.5 -90.5t32 -61.5t60.5 -35.5t95 -11.5h47v-106h-47q-57 0 -95 -13t-60.5 -38.5t-32 -64.5t-9.5 -91 q0 -40 3.5 -90t7 -103t7 -105.5t3.5 -97.5q0 -108 -17.5 -190t-59.5 -137t-112.5 -83t-175.5 -28h-57v57z" />
<glyph unicode="~" horiz-adv-x="1188" d="M139 528v129q32 26 61.5 46.5t60 34.5t64 21t74.5 7q55 0 96 -11.5t73 -28.5t58.5 -37.5t54 -37.5t59 -28.5t73.5 -11.5q68 0 127.5 26.5t108.5 71.5v-129q-42 -48 -102.5 -77.5t-141.5 -29.5q-51 0 -90.5 11.5t-71.5 28.5t-60 37t-57 37t-61.5 28.5t-73.5 11.5 q-42 0 -76 -8t-64 -21.5t-57 -31.5t-55 -38z" />
<glyph unicode="&#xa1;" horiz-adv-x="498" d="M129 926q0 27 10 51t27 42t38.5 28t45.5 10t45.5 -10t38 -28t26 -42t9.5 -51q0 -28 -10 -52.5t-26.5 -42.5t-38.5 -28.5t-46 -10.5q-25 0 -47 10.5t-38 28.5t-25 42.5t-9 52.5zM131 -292l80 845h76l80 -845q2 -27 -4.5 -54t-21.5 -48.5t-38 -35t-55 -13.5q-33 0 -56 13.5 t-37.5 35t-20 48.5t-3.5 54z" />
<glyph unicode="&#xa2;" horiz-adv-x="1087" d="M74 494q0 95 31.5 188t89 170.5t138.5 132t180 72.5l-1 217h133l-2 -217q78 -5 141.5 -27t108.5 -56t69.5 -77.5t24.5 -90.5q0 -22 -6.5 -41.5t-18.5 -34.5t-29.5 -23.5t-40.5 -8.5q-27 0 -45 9t-29 23t-16 30t-5 30q0 20 6.5 42t24.5 41q-14 36 -41 57.5t-58.5 33.5 t-62.5 15.5t-53 3.5q-70 0 -130.5 -28.5t-104.5 -84.5t-69.5 -138t-25.5 -188q0 -102 25.5 -189t71.5 -150t111 -98.5t144 -35.5q48 0 95 14t89 38t77.5 56.5t60.5 69.5l53 -41q-36 -56 -81.5 -98.5t-95.5 -72t-102 -47t-101 -23.5l-1 -241h-119l-1 241q-92 11 -171 52 t-138 108.5t-92.5 160t-33.5 206.5z" />
<glyph unicode="&#xa3;" horiz-adv-x="1122" d="M96 43q0 28 13.5 55t37 51t56 42.5t71.5 29.5q23 36 38 83t15 104q0 66 -10.5 121t-25.5 110h-163v98h136q-15 60 -26 127t-11 154q0 102 28.5 185t78.5 141.5t119.5 90.5t152.5 32q90 0 151.5 -24t99 -60t53.5 -78t16 -77t-21.5 -62t-60.5 -27q-23 0 -38.5 8t-25.5 20 t-14 26t-4 26q0 11 4.5 31t21.5 38q-11 40 -52.5 70.5t-113.5 30.5q-58 0 -101.5 -24t-72.5 -64t-43.5 -92t-14.5 -109q0 -52 4.5 -99.5t11.5 -92t15.5 -87t17.5 -84.5h310v-98h-293q5 -37 8.5 -74.5t3.5 -77.5q0 -66 -29 -128t-77 -119q26 4 52.5 6t53.5 2q67 0 126.5 -19 t111 -42.5t94.5 -42.5t78 -19q46 0 75.5 31.5t34.5 97.5h64q-2 -62 -16.5 -114.5t-40.5 -91t-64.5 -60t-87.5 -21.5q-43 0 -83.5 14.5t-80 36.5t-78.5 47.5t-79.5 47.5t-83 36.5t-88.5 14.5q-21 0 -33 -2q-5 -39 -19 -74.5t-33.5 -62.5t-43 -42.5t-48.5 -15.5 q-37 0 -57 23.5t-20 52.5z" />
<glyph unicode="&#xa4;" horiz-adv-x="1096" d="M125 148l120 136q-37 51 -55 112.5t-18 124.5q0 64 20 128.5t59 117.5l-126 143l83 66l110 -138q46 37 103.5 58.5t127.5 21.5q69 0 125.5 -21t104.5 -59l111 138l83 -66l-126 -144q39 -53 59 -117t20 -128q0 -63 -18.5 -125t-55.5 -111l121 -137l-83 -66l-106 132 q-45 -35 -104.5 -55.5t-131.5 -20.5t-130.5 20t-104.5 55l-105 -131zM348 554q0 -49 8.5 -107.5t31 -109.5t61.5 -85t100 -34t100 34t61.5 85t31 109.5t8.5 107.5q0 39 -10 89.5t-33 95t-61.5 75.5t-96.5 31q-38 0 -68 -14.5t-52.5 -38t-38 -54t-25 -63t-13.5 -64t-4 -57.5z " />
<glyph unicode="&#xa5;" horiz-adv-x="1444" d="M57 1343v91h528v-68q-86 0 -123 -24t-37 -66q0 -28 13.5 -61t38.5 -72q38 -61 71.5 -115.5t67.5 -108t71 -108t81 -115.5h4q36 70 69 133.5t65 123.5t63.5 119.5t64.5 121.5q7 15 17.5 35t23.5 42t27.5 42.5t29.5 36.5l-162 -7v91h418v-68q-51 -3 -91 -20t-75 -49.5 t-67.5 -81t-67.5 -113.5l-242 -457h249v-88l-267 -2l-1 -130l268 -1v-88l-268 -2q0 -90 1 -90q0 -110 -6 -162l170 8v-90h-481v68q48 1 76 16t42 39.5t17.5 58.5t3.5 75v75h-261v94h262v127h-262v95h202l-295 468q-53 82 -78 137.5t-33 94.5z" />
<glyph unicode="&#xa6;" horiz-adv-x="498" d="M172 207h153l-8 -762h-139zM172 1556h153l-8 -767h-139z" />
<glyph unicode="&#xa7;" horiz-adv-x="1092" d="M78 622q0 43 12 88.5t35.5 89t57 85t76.5 77.5q-39 45 -62.5 104.5t-23.5 125.5q0 35 8 76t26 81t47.5 77.5t72.5 66.5t100 46t131 17q82 0 149.5 -22.5t115.5 -58.5t74.5 -81.5t26.5 -91.5q0 -19 -5.5 -36t-16.5 -30t-26.5 -21t-36.5 -8q-26 0 -42 8.5t-25.5 21t-14 27 t-4.5 27.5q0 12 5.5 34t19.5 35q-10 25 -30 47t-47.5 37.5t-61.5 24.5t-73 9q-71 0 -119 -22t-77.5 -55.5t-42.5 -72.5t-13 -73q0 -58 30 -104.5t79.5 -86.5t112.5 -77t129 -75.5t129 -82t112.5 -97t79.5 -120t30 -151.5q0 -44 -12 -89.5t-35.5 -89.5t-57 -85.5t-76.5 -77.5 q38 -45 61.5 -100.5t23.5 -127.5q0 -33 -8.5 -72t-27 -79t-48 -77t-72.5 -66t-99.5 -46.5t-129.5 -17.5q-90 0 -158.5 23.5t-114 61t-69 84t-23.5 93.5q0 20 6.5 39t18.5 33.5t29 23.5t38 9q23 0 38.5 -8.5t25.5 -21.5t14 -29.5t4 -32.5q0 -11 -6 -30t-17 -33 q2 -26 19.5 -49.5t45.5 -42.5t64.5 -30t76.5 -11q70 0 118.5 21t78 53t42.5 70t13 72q0 58 -30 104.5t-79.5 86.5t-112.5 77t-128.5 75.5t-128.5 82t-112.5 97t-79.5 120t-30 151.5zM236 698q0 -74 27 -130t72 -100.5t103 -81t119.5 -71t122 -70.5t110.5 -80q35 45 53 104 t18 116q0 73 -27.5 129t-72.5 100t-103 80.5t-119.5 71t-122 70.5t-110.5 80q-35 -46 -52.5 -103.5t-17.5 -114.5z" />
<glyph unicode="&#xa8;" horiz-adv-x="793" d="M123 1369q0 25 8.5 48t22.5 39.5t33 26.5t39 10q22 0 40.5 -10t32 -26.5t21 -39.5t7.5 -48t-8.5 -47t-22.5 -38.5t-32.5 -26t-38.5 -9.5q-21 0 -39.5 9.5t-32.5 26t-22 38.5t-8 47zM465 1369q0 25 8.5 48t22.5 39.5t33 26.5t39 10q22 0 40.5 -10t32 -26.5t21 -39.5 t7.5 -48t-8.5 -47t-22.5 -38.5t-32.5 -26t-38.5 -9.5q-21 0 -39.5 9.5t-32.5 26t-22 38.5t-8 47z" />
<glyph unicode="&#xa9;" horiz-adv-x="1796" d="M90 713q0 113 27.5 218t78 196.5t123 166.5t163 129t196 83.5t223.5 29.5q119 0 225 -29.5t196 -83.5t162 -129t122 -166.5t77 -196.5t27 -218q0 -112 -29 -216t-81.5 -194.5t-126.5 -165t-164.5 -127.5t-194.5 -82.5t-217 -29.5q-182 0 -331 61t-254.5 170t-163.5 258 t-58 326zM228 713q0 -94 21 -183.5t61 -169t98.5 -145.5t133.5 -114t165.5 -74.5t195.5 -26.5q102 0 191.5 26.5t164 74.5t133.5 114t99.5 145.5t62 169t21.5 183.5q0 95 -22 185.5t-63.5 170.5t-101 147.5t-135 116.5t-165.5 76t-191 27q-100 0 -188.5 -27t-163 -76 t-133.5 -116.5t-100 -147.5t-62.5 -170.5t-21.5 -185.5zM414 709q0 60 14.5 122t42.5 119.5t70 108t98 88t125.5 59t151.5 21.5q75 0 144 -23t123 -61l-7 74h102v-345h-82q-8 67 -31.5 113.5t-59.5 75.5t-82 42t-99 13q-59 0 -116 -24.5t-102 -72.5t-72.5 -120t-27.5 -166 q0 -85 26.5 -157.5t74.5 -125t114.5 -82.5t147.5 -30q34 0 73.5 10.5t79 30t76.5 47.5t66 63l61 -71q-45 -62 -99.5 -102.5t-110 -64t-109 -33t-96.5 -9.5q-107 0 -197.5 38.5t-157 106t-104 159t-37.5 196.5z" />
<glyph unicode="&#xaa;" horiz-adv-x="838" d="M111 931q0 62 37.5 106.5t96 73t129.5 42t138 13.5v70q0 31 -3 60.5t-16 52t-39 36t-72 13.5q-19 0 -38.5 -5.5t-36.5 -16t-29.5 -25t-18.5 -31.5q17 -20 17 -50q0 -10 -3.5 -21t-11.5 -20.5t-20.5 -16t-31.5 -6.5q-30 0 -47.5 21.5t-17.5 50.5q0 35 20 69t55.5 60.5 t84 43t106.5 16.5q111 0 170 -59t59 -186l-2 -228q-1 -64 14.5 -93.5t43.5 -29.5q13 0 36 17l23 -39q-9 -12 -23.5 -23.5t-32.5 -21t-37.5 -15.5t-37.5 -6q-27 0 -46.5 7.5t-32 20t-20 28t-11.5 31.5q-38 -42 -87.5 -66.5t-113.5 -24.5q-100 0 -150.5 43t-50.5 109zM256 954 q0 -33 15 -52.5t32.5 -27.5t32 -8.5l14.5 -0.5q42 0 82.5 20.5t75.5 55.5l3 161q-46 0 -91.5 -9t-82 -27t-59 -46t-22.5 -66z" />
<glyph unicode="&#xab;" horiz-adv-x="1085" d="M65 540v8l561 575l63 -65l-403 -518v-4l399 -486l-65 -65zM501 546v6l406 399l65 -61l-248 -332v-4l244 -336l-66 -61z" />
<glyph unicode="&#xac;" horiz-adv-x="1212" d="M150 578v127l912 -5v-378h-105l-7 259z" />
<glyph unicode="&#xad;" horiz-adv-x="1001" d="M137 584v143h727v-135z" />
<glyph unicode="&#xae;" horiz-adv-x="1798" d="M90 713q0 113 27 218.5t78 197t123 166.5t162.5 128.5t196.5 83t224 29.5q120 0 226.5 -29.5t196.5 -83t161.5 -128.5t121.5 -166.5t76.5 -197t26.5 -218.5t-28.5 -217.5t-81 -195t-126.5 -165t-164 -127t-194.5 -81.5t-218.5 -29q-183 0 -331.5 60.5t-254.5 169 t-163.5 258t-57.5 327.5zM230 713q0 -95 20.5 -184.5t60.5 -168.5t98 -144.5t132.5 -113t165.5 -74t196 -26.5q103 0 192.5 26.5t164 74t133 113t99 144.5t62 168.5t21.5 184.5t-22 185.5t-63 171t-101 148t-135 116t-165 75.5t-192 27q-101 0 -189.5 -27t-162.5 -75.5 t-132.5 -116t-99 -148t-62 -171t-21.5 -185.5zM514 279v69q37 1 57.5 13t29.5 33.5t10.5 51.5t1.5 66v535q0 27 0.5 52.5t3.5 45.5l-103 -10v86q32 1 72.5 2.5t84 3t87 2.5t82.5 1q113 0 195 -20t134.5 -56t77.5 -86t25 -110q0 -34 -12 -74t-41 -78.5t-76.5 -71 t-119.5 -52.5v-2q17 -8 39 -27.5t48 -56.5q58 -87 96 -137.5t65.5 -77t48 -34t42.5 -7.5v-70h-178q-31 8 -67 50t-87 114q-45 63 -84 122.5t-70 104.5q-15 -3 -43 -3q-20 0 -39 1t-30 3v-201q0 -35 -1 -60.5t-3 -44.5l102 4v-81h-348zM764 748h2q17 -2 35 -3t36 -1 q22 0 51.5 3.5t60 12.5t60 24t52.5 38t37 55t14 75q0 46 -19 81.5t-50.5 59.5t-72.5 36.5t-84 12.5q-48 0 -73 -12.5t-36 -35t-12 -54.5t-1 -71v-221z" />
<glyph unicode="&#xaf;" horiz-adv-x="727" d="M92 1311v123h543v-115z" />
<glyph unicode="&#xb0;" horiz-adv-x="829" d="M96 1148q0 67 25.5 125t69.5 101t102.5 68t123.5 25q72 0 130.5 -25t100 -68t63.5 -101t22 -125t-26 -125t-70 -101.5t-102.5 -68.5t-123.5 -25q-72 0 -130 25t-99.5 68.5t-63.5 101.5t-22 125zM225 1148q0 -42 13.5 -81t38.5 -69t60 -47.5t78 -17.5q42 0 77 17.5 t60 47.5t38.5 69t13.5 81t-13.5 81t-38.5 69.5t-60.5 48.5t-78.5 18q-42 0 -76.5 -18t-59.5 -48.5t-38.5 -69.5t-13.5 -81z" />
<glyph unicode="&#xb1;" horiz-adv-x="1180" d="M133 6v106l912 9v-115h-912zM133 614v123l389 -2v322h132v-322l391 -2v-115l-391 -2v-340h-132v339z" />
<glyph unicode="&#xb2;" horiz-adv-x="788" d="M125 627q0 64 19.5 116.5t52.5 98.5t76.5 86.5t91.5 79.5q43 35 68.5 68.5t39.5 64t18.5 57.5t4.5 48q0 66 -33 106.5t-96 40.5q-25 0 -46.5 -7t-38.5 -18t-28 -26t-15 -31q19 -17 19 -47q0 -9 -3 -19.5t-10.5 -19.5t-19 -15t-28.5 -6q-26 0 -42 19t-16 47 q0 30 16.5 64.5t48.5 64t79.5 49t109.5 19.5q48 0 92 -13t78.5 -40t55 -68t20.5 -98q0 -30 -8 -62.5t-33.5 -70.5t-73 -83.5t-125.5 -102.5q-137 -100 -162 -187l173 -4q21 -1 41 -1.5t37 -0.5q27 0 49 3t37 12t23.5 25.5t8.5 43.5h43v-193h-524z" />
<glyph unicode="&#xb3;" horiz-adv-x="758" d="M111 808q0 32 17.5 53.5t49.5 21.5q16 0 27.5 -6t19 -15.5t10.5 -21.5t3 -23t-4.5 -23t-11.5 -21q3 -21 15 -35.5t30 -24t40 -14t45 -4.5q40 0 70 15t49.5 39.5t29.5 55t10 62.5q0 25 -6 55.5t-23.5 58t-53.5 45.5t-85 18q-26 0 -57 -2v65h24q59 0 93 17t51 41t21.5 49 t4.5 42q0 25 -6.5 50.5t-21.5 46t-39.5 33.5t-60.5 13q-53 0 -83.5 -26t-36.5 -56q18 -18 18 -45q0 -9 -3 -19.5t-10.5 -19.5t-19 -15t-28.5 -6q-27 0 -42 20.5t-15 46.5q0 28 15.5 60.5t45.5 61t75.5 47.5t105.5 19q53 0 96.5 -14t74 -40t47.5 -63t17 -82q0 -26 -11 -53.5 t-32.5 -52.5t-54 -45t-75.5 -31v-2q53 -5 93 -24t67 -48t40.5 -66.5t13.5 -78.5q0 -50 -19.5 -94t-56 -77t-90 -52t-120.5 -19q-62 0 -109 16t-79 42.5t-48.5 59t-16.5 65.5z" />
<glyph unicode="&#xb4;" horiz-adv-x="516" d="M92 1235l172 276q23 33 45.5 44.5t39 11.5t32 -6.5t25.5 -19.5t13.5 -24t3.5 -24q0 -11 -3 -21t-6 -17q-9 -23 -35 -50l-230 -217z" />
<glyph unicode="&#xb5;" horiz-adv-x="1257" d="M193 -355l2 1379h172v-541q0 -87 9 -162.5t33.5 -130.5t67 -86.5t109.5 -31.5q38 0 73.5 11.5t67.5 31.5t58.5 46.5t46.5 56.5v806h174l-2 -735q0 -53 6.5 -89.5t18.5 -59t29 -32.5t38 -10q19 0 38.5 7.5t47.5 27.5l23 -31q-13 -18 -34 -38.5t-47.5 -37t-58.5 -27.5 t-67 -11q-38 0 -64.5 10.5t-45.5 28.5t-30 41t-17 47q-29 -30 -65.5 -57t-77.5 -47.5t-85 -32t-88 -11.5q-78 0 -134 44t-98 122q11 -112 22.5 -190t22.5 -131.5t21 -87.5t17 -58t11.5 -43.5t4.5 -43.5q0 -20 -6 -40t-17.5 -35.5t-29 -25.5t-41.5 -10q-57 0 -81 47.5 t-24 129.5z" />
<glyph unicode="&#xb6;" horiz-adv-x="1026" d="M68 1136q0 73 25 129t66 93.5t93 56.5t107 19h464l-4 -1956h-143l4 1872l-179 -6l-5 -1866h-144l5 1359q-51 4 -102.5 21.5t-93 53t-67.5 90.5t-26 134z" />
<glyph unicode="&#xb7;" horiz-adv-x="512" d="M137 671q0 28 10 52.5t26.5 42.5t38.5 28.5t46 10.5q25 0 46.5 -10.5t37.5 -28.5t25 -42.5t9 -52.5q0 -27 -10 -51t-26.5 -42t-38 -28t-45.5 -10t-45.5 10t-38 28t-26 42t-9.5 51z" />
<glyph unicode="&#xb8;" horiz-adv-x="598" d="M92 -425q52 9 97 23.5t78 34t52 44t19 54.5q0 33 -19 47t-46 14q-23 0 -48 -8t-45 -22l-69 34l59 220h115l-56 -168q29 18 67 27t73 9q63 0 100 -36t37 -99q0 -41 -20 -74t-53 -58.5t-75.5 -44t-87 -31.5t-88 -21.5t-78.5 -13.5z" />
<glyph unicode="&#xb9;" horiz-adv-x="580" d="M92 1301l228 166h51l2 -705q0 -23 -1 -43t-3 -37l104 4v-70h-318v58q31 0 51 12t31 32t15 47.5t4 59.5v494h-5l-127 -76z" />
<glyph unicode="&#xba;" horiz-adv-x="858" d="M98 1107q0 76 25.5 142t70.5 114.5t106.5 76t133.5 27.5q71 0 130.5 -24.5t103 -68.5t68.5 -105.5t25 -135.5q0 -78 -24.5 -143t-68.5 -112t-105 -73t-134 -26q-71 0 -131.5 24.5t-104.5 68t-69.5 103.5t-25.5 132zM247 1144q0 -58 11.5 -111t35 -93.5t59 -64.5t84.5 -24 q45 0 78.5 19.5t56.5 53.5t34.5 79.5t11.5 97.5q0 58 -11 112t-34 95t-58 65.5t-90 24.5q-38 0 -73.5 -21t-58 -55t-34.5 -79.5t-12 -98.5z" />
<glyph unicode="&#xbb;" horiz-adv-x="1083" d="M113 218l248 332v4l-244 336l66 61l401 -389v-6l-406 -399zM396 50l403 518v4l-399 486l65 65l555 -555v-8l-561 -575z" />
<glyph unicode="&#xbc;" horiz-adv-x="1563" d="M93 1301l228 166h51l2 -705q0 -23 -1 -43t-3 -37l104 4v-70h-318v58q31 0 51 12t31 32t15 47.5t4 59.5v494h-5l-127 -76zM232 20l956 1447l90 -65l-969 -1435zM913 215v61l408 566h54v-553h116v-74h-115v-149l84 4v-70h-301v59q31 1 51 11.5t31 28t15 42t4 54.5v20h-347z M1009 296l250 -4v351h-2z" />
<glyph unicode="&#xbd;" horiz-adv-x="1642" d="M91 1301l228 166h51l2 -705q0 -23 -1 -43t-3 -37l104 4v-70h-318v58q31 0 51 12t31 32t15 47.5t4 59.5v494h-5l-127 -76zM230 20l956 1447l90 -65l-969 -1435zM1026 0q0 64 19.5 116.5t52.5 98.5t76.5 86.5t91.5 79.5q43 35 68.5 68.5t39.5 64t18.5 57.5t4.5 48 q0 66 -33 106.5t-96 40.5q-25 0 -46.5 -7t-38.5 -18t-28 -26t-15 -31q19 -17 19 -47q0 -9 -3 -19.5t-10.5 -19.5t-19 -15t-28.5 -6q-26 0 -42 19t-16 47q0 30 16.5 64.5t48.5 64t79.5 49t109.5 19.5q48 0 92 -13t78.5 -40t55 -68t20.5 -98q0 -30 -8 -62.5t-33.5 -70.5 t-73 -83.5t-125.5 -102.5q-137 -100 -162 -187l173 -4q21 -1 41 -1.5t37 -0.5q27 0 49 3t37 12t23.5 25.5t8.5 43.5h43v-193h-524z" />
<glyph unicode="&#xbe;" horiz-adv-x="1649" d="M72 808q0 32 17.5 53.5t49.5 21.5q16 0 27.5 -6t19 -15.5t10.5 -21.5t3 -23t-4.5 -23t-11.5 -21q3 -21 15 -35.5t30 -24t40 -14t45 -4.5q40 0 70 15t49.5 39.5t29.5 55t10 62.5q0 25 -6 55.5t-23.5 58t-53.5 45.5t-85 18q-26 0 -57 -2v65h24q59 0 93 17t51 41t21.5 49 t4.5 42q0 25 -6.5 50.5t-21.5 46t-39.5 33.5t-60.5 13q-53 0 -83.5 -26t-36.5 -56q18 -18 18 -45q0 -9 -3 -19.5t-10.5 -19.5t-19 -15t-28.5 -6q-27 0 -42 20.5t-15 46.5q0 28 15.5 60.5t45.5 61t75.5 47.5t105.5 19q53 0 96.5 -14t74 -40t47.5 -63t17 -82q0 -26 -11 -53.5 t-32.5 -52.5t-54 -45t-75.5 -31v-2q53 -5 93 -24t67 -48t40.5 -66.5t13.5 -78.5q0 -50 -19.5 -94t-56 -77t-90 -52t-120.5 -19q-62 0 -109 16t-79 42.5t-48.5 59t-16.5 65.5zM350 20l956 1447l90 -65l-969 -1435zM1035 215v61l408 566h54v-553h116v-74h-115v-149l84 4v-70 h-301v59q31 1 51 11.5t31 28t15 42t4 54.5v20h-347zM1131 296l250 -4v351h-2z" />
<glyph unicode="&#xbf;" horiz-adv-x="956" d="M69 -85q4 69 39.5 128t86.5 110t109 95.5t107.5 83.5t82 75t32.5 70q0 12 -4.5 24.5t-14.5 22t-26.5 15.5t-40.5 6q-14 0 -35.5 -3.5t-40.5 -11.5l-24 72q32 19 77.5 28t83.5 9q30 0 59.5 -7.5t52.5 -23.5t37.5 -42t14.5 -64q0 -46 -29 -86.5t-73 -80t-95.5 -82 t-96.5 -93t-75.5 -112t-33.5 -139.5q-1 -55 10.5 -104.5t40.5 -87t78 -59t121 -21.5q44 0 83.5 13.5t69.5 35t49 47t23 49.5q-11 18 -17 38t-6 42q0 13 5.5 29t16.5 29.5t29 22t43 7.5q44 -2 65.5 -32.5t21.5 -74.5q0 -45 -28.5 -95.5t-82 -92.5t-130 -70t-173.5 -28 q-118 0 -199 32t-129.5 83t-68 115t-15.5 128zM378 936q0 25 8 47t22.5 38.5t34.5 26t44 9.5q21 0 41 -8t35.5 -24t25 -38t9.5 -51q0 -25 -9.5 -47t-25 -38.5t-35.5 -26t-41 -9.5q-23 0 -43 9.5t-34.5 26t-23 38.5t-8.5 47z" />
<glyph unicode="&#xc0;" horiz-adv-x="1282" d="M-12 0v68q46 0 75 18.5t49 52.5t36.5 81t37.5 104l422 1149h49l457 -1166q9 -21 18.5 -50.5t18 -60.5t13 -61t3.5 -53l140 8v-90h-469v68q57 1 84 21t34 49t0 62t-18 62l-72 192l-533 -12q-22 -63 -39 -115.5t-32 -103.5q-8 -24 -14 -43t-12 -35t-12 -31t-13 -32l160 8 v-90h-383zM270 1820q-3 18 2 31.5t10 20.5q3 4 13.5 12.5t28 12t42 -2.5t54.5 -32l258 -246l-45 -60l-297 183q-35 21 -49 42t-17 39zM364 530h474l-146 392l-92 252h-4l-86 -232q-47 -132 -82.5 -232.5t-63.5 -179.5z" />
<glyph unicode="&#xc1;" horiz-adv-x="1282" d="M-12 0v68q46 0 75 18.5t49 52.5t36.5 81t37.5 104l422 1149h49l457 -1166q9 -21 18.5 -50.5t18 -60.5t13 -61t3.5 -53l140 8v-90h-469v68q57 1 84 21t34 49t0 62t-18 62l-72 192l-533 -12q-22 -63 -39 -115.5t-32 -103.5q-8 -24 -14 -43t-12 -35t-12 -31t-13 -32l160 8 v-90h-383zM364 530h474l-146 392l-92 252h-4l-86 -232q-47 -132 -82.5 -232.5t-63.5 -179.5zM585 1616l258 246q30 26 54.5 32t42 2.5t28 -12t13.5 -12.5q5 -7 10 -20.5t2 -31.5t-17 -39t-49 -42l-297 -183z" />
<glyph unicode="&#xc2;" horiz-adv-x="1282" d="M-12 0v68q46 0 75 18.5t49 52.5t36.5 81t37.5 104l422 1149h49l457 -1166q9 -21 18.5 -50.5t18 -60.5t13 -61t3.5 -53l140 8v-90h-469v68q57 1 84 21t34 49t0 62t-18 62l-72 192l-533 -12q-22 -63 -39 -115.5t-32 -103.5q-8 -24 -14 -43t-12 -35t-12 -31t-13 -32l160 8 v-90h-383zM237 1616l397 291h5l376 -289l-45 -70l-340 181h-4l-348 -179zM364 530h474l-146 392l-92 252h-4l-86 -232q-47 -132 -82.5 -232.5t-63.5 -179.5z" />
<glyph unicode="&#xc3;" horiz-adv-x="1282" d="M-12 0v68q46 0 75 18.5t49 52.5t36.5 81t37.5 104l422 1149h49l457 -1166q9 -21 18.5 -50.5t18 -60.5t13 -61t3.5 -53l140 8v-90h-469v68q57 1 84 21t34 49t0 62t-18 62l-72 192l-533 -12q-22 -63 -39 -115.5t-32 -103.5q-8 -24 -14 -43t-12 -35t-12 -31t-13 -32l160 8 v-90h-383zM227 1653q18 45 44.5 83t57 66t64 44.5t66.5 17.5q40 0 72.5 -10.5t59.5 -26.5t50.5 -35t46.5 -35t46.5 -26.5t51.5 -10.5q27 0 51 11t44.5 29t38 42t32.5 51l66 -32q-22 -63 -50 -107t-60 -71t-66 -39.5t-68 -12.5q-40 0 -72.5 11t-60.5 27t-52.5 35t-48 35 t-46 27t-46.5 11q-44 0 -78.5 -33t-72.5 -90zM364 530h474l-146 392l-92 252h-4l-86 -232q-47 -132 -82.5 -232.5t-63.5 -179.5z" />
<glyph unicode="&#xc4;" horiz-adv-x="1282" d="M-12 0v68q46 0 75 18.5t49 52.5t36.5 81t37.5 104l422 1149h49l457 -1166q9 -21 18.5 -50.5t18 -60.5t13 -61t3.5 -53l140 8v-90h-469v68q57 1 84 21t34 49t0 62t-18 62l-72 192l-533 -12q-22 -63 -39 -115.5t-32 -103.5q-8 -24 -14 -43t-12 -35t-12 -31t-13 -32l160 8 v-90h-383zM341 1718q0 27 9 51t25 42t36 28.5t43 10.5t43 -10.5t35 -28.5t23.5 -42t8.5 -51t-9 -50.5t-24.5 -41t-36 -27.5t-42.5 -10q-23 0 -43 10t-35 27.5t-24 41t-9 50.5zM364 530h474l-146 392l-92 252h-4l-86 -232q-47 -132 -82.5 -232.5t-63.5 -179.5zM709 1718 q0 27 9 51t25 42t36 28.5t43 10.5t43 -10.5t35 -28.5t23.5 -42t8.5 -51t-9 -50.5t-24.5 -41t-36 -27.5t-42.5 -10q-23 0 -43 10t-35 27.5t-24 41t-9 50.5z" />
<glyph unicode="&#xc5;" horiz-adv-x="1286" d="M-10 0v68q46 0 75 18.5t49 52.5t36.5 81t37.5 104l422 1149h49l457 -1166q9 -21 18.5 -50.5t18 -60.5t13 -61t3.5 -53l140 8v-90h-469v68q57 1 84 21t34 49t0 62t-18 62l-72 192l-533 -12q-22 -63 -39 -115.5t-32 -103.5q-8 -24 -14 -43t-12 -35t-12 -31t-13 -32l160 8 v-90h-383zM366 530h474l-146 392l-92 252h-4l-86 -232q-47 -132 -82.5 -232.5t-63.5 -179.5zM397 1687q0 52 20.5 94.5t53.5 72.5t74.5 46.5t83.5 16.5q41 0 82 -12.5t74.5 -39t55 -66.5t23.5 -95q0 -56 -19.5 -100t-52 -75.5t-74 -48t-85.5 -16.5t-86.5 13t-75.5 40.5 t-53.5 69.5t-20.5 100zM516 1700q0 -74 32.5 -119t87.5 -45q21 0 41 9.5t35 27.5t24 43.5t9 58.5q0 85 -32.5 128.5t-83.5 43.5h-7q-48 -3 -77 -42t-29 -105z" />
<glyph unicode="&#xc6;" horiz-adv-x="1944" d="M-43 0v68q41 0 74 18t61 45.5t51 60.5t783 1161l-184 -10v91h1027l9 -359h-67q0 88 -20.5 144t-56 88t-83.5 43.5t-104 11.5h-13l-176 -4q-58 -2 -89.5 -17t-46.5 -44.5t-17.5 -74.5t-2.5 -108v-330h152q64 0 110 5t75.5 24t43 57.5t13.5 106.5h67v-447h-67 q0 67 -13.5 104t-42.5 54t-74.5 20t-109.5 3l-154 -8q0 -518 -1.5 -556.5t-4.5 -64.5l403 -6q65 0 117.5 17t89 55t56.5 99.5t20 151.5h70l-12 -399h-1057v74h16q40 3 64.5 16t38 36.5t18 58t4.5 81.5v187l-499 -11l-241 -360l156 8v-90h-383zM483 530h441v661z" />
<glyph unicode="&#xc7;" horiz-adv-x="1434" d="M96 694q0 96 19.5 191t59 180.5t98.5 159t138 127.5t178 84.5t218 30.5q117 0 217 -31t196 -94l-10 110h111v-475h-74q-11 96 -45.5 171.5t-89 127.5t-128.5 79.5t-163 27.5q-109 0 -204.5 -46.5t-166.5 -132t-112 -207.5t-41 -272q0 -145 43 -264.5t117.5 -205.5 t174.5 -133.5t214 -47.5q67 0 133.5 15t128 45t115.5 74t96 101l53 -43q-65 -90 -138.5 -147.5t-148.5 -90.5t-147.5 -46.5t-136.5 -14.5l-39 -124q15 9 33 15.5t36.5 10t35.5 5.5t29 2q39 0 68.5 -11.5t49 -31t29.5 -46t10 -57.5q0 -42 -21.5 -76t-57 -61.5t-80 -48.5 t-91.5 -36t-92 -25t-80 -15l-12 78q52 9 97.5 25t79.5 37t53.5 47.5t19.5 56.5q0 35 -19.5 50t-46.5 15q-22 0 -46 -7.5t-44 -20.5l-73 34l48 191q-133 19 -242 81.5t-187 158t-120.5 218t-42.5 262.5z" />
<glyph unicode="&#xc8;" horiz-adv-x="1274" d="M113 0v68q49 1 77.5 15.5t42.5 39.5t17.5 59.5t3.5 76.5v60v885q0 42 1.5 79.5t5.5 68.5l-148 -9v91h985l10 -359h-67q0 88 -20.5 144t-56 88t-83.5 43.5t-104 11.5l-189 -3q-57 -3 -88.5 -18t-46.5 -44.5t-17.5 -74.5t-2.5 -108v-330h384l-15 177h91v-431h-67 q0 60 -10.5 95.5t-33 55t-57 25.5t-83.5 6h-29t-180 -7v-469q0 -57 -1.5 -95.5t-5.5 -64.5l392 6q67 1 121 16.5t92.5 52t59.5 97t21 151.5h70l-12 -399h-1057zM344 1820q-3 18 2 31.5t10 20.5q3 4 13.5 12.5t28 12t42 -2.5t54.5 -32l258 -246l-45 -60l-297 183 q-35 21 -49 42t-17 39z" />
<glyph unicode="&#xc9;" horiz-adv-x="1274" d="M113 0v68q49 1 77.5 15.5t42.5 39.5t17.5 59.5t3.5 76.5v60v885q0 42 1.5 79.5t5.5 68.5l-148 -9v91h985l10 -359h-67q0 88 -20.5 144t-56 88t-83.5 43.5t-104 11.5l-189 -3q-57 -3 -88.5 -18t-46.5 -44.5t-17.5 -74.5t-2.5 -108v-330h384l-15 177h91v-431h-67 q0 60 -10.5 95.5t-33 55t-57 25.5t-83.5 6h-29t-180 -7v-469q0 -57 -1.5 -95.5t-5.5 -64.5l392 6q67 1 121 16.5t92.5 52t59.5 97t21 151.5h70l-12 -399h-1057zM547 1616l258 246q30 26 54.5 32t42 2.5t28 -12t13.5 -12.5q5 -7 10 -20.5t2 -31.5t-17 -39t-49 -42l-297 -183z " />
<glyph unicode="&#xca;" horiz-adv-x="1274" d="M113 0v68q49 1 77.5 15.5t42.5 39.5t17.5 59.5t3.5 76.5v60v885q0 42 1.5 79.5t5.5 68.5l-148 -9v91h985l10 -359h-67q0 88 -20.5 144t-56 88t-83.5 43.5t-104 11.5l-189 -3q-57 -3 -88.5 -18t-46.5 -44.5t-17.5 -74.5t-2.5 -108v-330h384l-15 177h91v-431h-67 q0 60 -10.5 95.5t-33 55t-57 25.5t-83.5 6h-29t-180 -7v-469q0 -57 -1.5 -95.5t-5.5 -64.5l392 6q67 1 121 16.5t92.5 52t59.5 97t21 151.5h70l-12 -399h-1057zM281 1616l397 291h5l376 -289l-45 -70l-340 181h-4l-348 -179z" />
<glyph unicode="&#xcb;" horiz-adv-x="1274" d="M113 0v68q49 1 77.5 15.5t42.5 39.5t17.5 59.5t3.5 76.5v60v885q0 42 1.5 79.5t5.5 68.5l-148 -9v91h985l10 -359h-67q0 88 -20.5 144t-56 88t-83.5 43.5t-104 11.5l-189 -3q-57 -3 -88.5 -18t-46.5 -44.5t-17.5 -74.5t-2.5 -108v-330h384l-15 177h91v-431h-67 q0 60 -10.5 95.5t-33 55t-57 25.5t-83.5 6h-29t-180 -7v-469q0 -57 -1.5 -95.5t-5.5 -64.5l392 6q67 1 121 16.5t92.5 52t59.5 97t21 151.5h70l-12 -399h-1057zM375 1718q0 27 9 51t25 42t36 28.5t43 10.5t43 -10.5t35 -28.5t23.5 -42t8.5 -51t-9 -50.5t-24.5 -41t-36 -27.5 t-42.5 -10q-23 0 -43 10t-35 27.5t-24 41t-9 50.5zM743 1718q0 27 9 51t25 42t36 28.5t43 10.5t43 -10.5t35 -28.5t23.5 -42t8.5 -51t-9 -50.5t-24.5 -41t-36 -27.5t-42.5 -10q-23 0 -43 10t-35 27.5t-24 41t-9 50.5z" />
<glyph unicode="&#xcc;" horiz-adv-x="684" d="M36 1820q-3 18 2 31.5t10 20.5q3 4 13.5 12.5t28 12t42 -2.5t54.5 -32l258 -246l-45 -60l-297 183q-35 21 -49 42t-17 39zM112 0v68q58 2 87 21t41 52t12.5 78.5t0.5 99.5v885q0 42 1.5 79.5t5.5 68.5l-148 -9v91h461v-68q-58 -2 -87 -21.5t-41 -52.5t-12.5 -78 t-0.5 -100v-870q0 -56 -1.5 -96t-5.5 -66l148 8v-90h-461z" />
<glyph unicode="&#xcd;" horiz-adv-x="684" d="M113 0v68q58 2 87 21t41 52t12.5 78.5t0.5 99.5v885q0 42 1.5 79.5t5.5 68.5l-148 -9v91h461v-68q-58 -2 -87 -21.5t-41 -52.5t-12.5 -78t-0.5 -100v-870q0 -56 -1.5 -96t-5.5 -66l148 8v-90h-461zM201 1616l258 246q30 26 54.5 32t42 2.5t28 -12t13.5 -12.5 q5 -7 10 -20.5t2 -31.5t-17 -39t-49 -42l-297 -183z" />
<glyph unicode="&#xce;" horiz-adv-x="686" d="M-18 1616l377 291h4l356 -289l-45 -70l-319 181h-4l-328 -179zM112 0v68q58 2 87 21t41 52t12.5 78.5t0.5 99.5v885q0 42 1.5 79.5t5.5 68.5l-148 -9v91h461v-68q-58 -2 -87 -21.5t-41 -52.5t-12.5 -78t-0.5 -100v-870q0 -56 -1.5 -96t-5.5 -66l148 8v-90h-461z" />
<glyph unicode="&#xcf;" horiz-adv-x="684" d="M86 1714q0 28 9.5 52t24.5 42t35.5 28t43.5 10t43 -10t35 -28t23.5 -42t8.5 -52q0 -26 -9.5 -49.5t-25 -41.5t-35.5 -27.5t-42 -9.5t-42.5 9.5t-35.5 27.5t-24 41.5t-9 49.5zM112 0v68q58 2 87 21t41 52t12.5 78.5t0.5 99.5v885q0 42 1.5 79.5t5.5 68.5l-148 -9v91h461 v-68q-58 -2 -87 -21.5t-41 -52.5t-12.5 -78t-0.5 -100v-870q0 -56 -1.5 -96t-5.5 -66l148 8v-90h-461zM412 1714q0 28 9.5 52t24.5 42t35.5 28t43.5 10t43 -10t35 -28t23.5 -42t8.5 -52q0 -26 -9.5 -49.5t-25 -41.5t-35.5 -27.5t-42 -9.5t-42.5 9.5t-35.5 27.5t-24 41.5 t-9 49.5z" />
<glyph unicode="&#xd0;" horiz-adv-x="1528" d="M39 666v106h217v432q0 42 1.5 79.5t5.5 68.5l-148 -9v91l483 2q186 0 339.5 -43t264 -132t171.5 -225t61 -321q0 -94 -22 -183.5t-66 -169t-109.5 -146t-152 -114.5t-194.5 -75t-236 -27h-539v68q49 1 77.5 15.5t42.5 39.5t17.5 59.5t3.5 76.5v409zM428 82q45 -2 84 -3 t68 -1h68q132 0 240 49t184.5 135.5t118.5 204.5t42 256q0 145 -39.5 262.5t-120.5 201t-204.5 128.5t-292.5 45q-50 0 -78 -13t-42 -37.5t-17.5 -59t-3.5 -76.5v-402h249v-98l-249 -4v-428q0 -57 -1.5 -95.5t-5.5 -64.5z" />
<glyph unicode="&#xd1;" horiz-adv-x="1563" d="M117 0v68q47 0 74 16.5t40.5 40.5t17 52t3.5 52l2 1123l-137 -9v91h244l872 -1167h2l2 937q0 86 6 148l-147 -9v91h377v-68q-58 -2 -86.5 -21.5t-40 -52.5t-11 -78t0.5 -100l-4 -1147h-99l-889 1195h-3l7 -877q0 -53 -0.5 -103.5t-3.5 -99.5l148 8v-90h-375zM398 1653 q18 45 44.5 83t57 66t64 44.5t66.5 17.5q40 0 72.5 -10.5t59.5 -26.5t50.5 -35t46.5 -35t46.5 -26.5t51.5 -10.5q27 0 51 11t44.5 29t38 42t32.5 51l66 -32q-22 -63 -50 -107t-60 -71t-66 -39.5t-68 -12.5q-40 0 -72.5 11t-60.5 27t-52.5 35t-48 35t-46 27t-46.5 11 q-44 0 -78.5 -33t-72.5 -90z" />
<glyph unicode="&#xd2;" d="M94 717q0 86 19 175t58 172.5t98 156.5t138 128t179 86.5t221 31.5q125 0 227.5 -32t183.5 -86.5t140.5 -128t99 -157t59 -172.5t19.5 -174t-19.5 -173.5t-58 -172t-97.5 -157t-138.5 -128.5t-179 -87t-220.5 -32q-130 0 -234.5 31t-185.5 84.5t-139.5 126t-96 155.5 t-55.5 173.5t-18 179.5zM295 754q0 -76 14 -157.5t42.5 -159.5t72 -148.5t103 -123t134 -83.5t166.5 -31q84 0 154 25.5t126 70t98 105t70 130t42.5 148.5t14.5 148q0 74 -16 164t-47 168.5t-76 147t-104 119t-131.5 79.5t-157.5 29q-126 0 -221 -56t-158 -146t-94.5 -202.5 t-31.5 -226.5zM540 1820q-3 18 2 31.5t10 20.5q3 4 13.5 12.5t28 12t42 -2.5t54.5 -32l258 -246l-45 -60l-297 183q-35 21 -49 42t-17 39z" />
<glyph unicode="&#xd3;" d="M94 717q0 86 19 175t58 172.5t98 156.5t138 128t179 86.5t221 31.5q125 0 227.5 -32t183.5 -86.5t140.5 -128t99 -157t59 -172.5t19.5 -174t-19.5 -173.5t-58 -172t-97.5 -157t-138.5 -128.5t-179 -87t-220.5 -32q-130 0 -234.5 31t-185.5 84.5t-139.5 126t-96 155.5 t-55.5 173.5t-18 179.5zM295 754q0 -76 14 -157.5t42.5 -159.5t72 -148.5t103 -123t134 -83.5t166.5 -31q84 0 154 25.5t126 70t98 105t70 130t42.5 148.5t14.5 148q0 74 -16 164t-47 168.5t-76 147t-104 119t-131.5 79.5t-157.5 29q-126 0 -221 -56t-158 -146t-94.5 -202.5 t-31.5 -226.5zM642 1616l258 246q30 26 54.5 32t42 2.5t28 -12t13.5 -12.5q5 -7 10 -20.5t2 -31.5t-17 -39t-49 -42l-297 -183z" />
<glyph unicode="&#xd4;" d="M94 717q0 86 19 175t58 172.5t98 156.5t138 128t179 86.5t221 31.5q125 0 227.5 -32t183.5 -86.5t140.5 -128t99 -157t59 -172.5t19.5 -174t-19.5 -173.5t-58 -172t-97.5 -157t-138.5 -128.5t-179 -87t-220.5 -32q-130 0 -234.5 31t-185.5 84.5t-139.5 126t-96 155.5 t-55.5 173.5t-18 179.5zM295 754q0 -76 14 -157.5t42.5 -159.5t72 -148.5t103 -123t134 -83.5t166.5 -31q84 0 154 25.5t126 70t98 105t70 130t42.5 148.5t14.5 148q0 74 -16 164t-47 168.5t-76 147t-104 119t-131.5 79.5t-157.5 29q-126 0 -221 -56t-158 -146t-94.5 -202.5 t-31.5 -226.5zM432 1616l397 291h5l376 -289l-45 -70l-340 181h-4l-348 -179z" />
<glyph unicode="&#xd5;" d="M94 717q0 86 19 175t58 172.5t98 156.5t138 128t179 86.5t221 31.5q125 0 227.5 -32t183.5 -86.5t140.5 -128t99 -157t59 -172.5t19.5 -174t-19.5 -173.5t-58 -172t-97.5 -157t-138.5 -128.5t-179 -87t-220.5 -32q-130 0 -234.5 31t-185.5 84.5t-139.5 126t-96 155.5 t-55.5 173.5t-18 179.5zM295 754q0 -76 14 -157.5t42.5 -159.5t72 -148.5t103 -123t134 -83.5t166.5 -31q84 0 154 25.5t126 70t98 105t70 130t42.5 148.5t14.5 148q0 74 -16 164t-47 168.5t-76 147t-104 119t-131.5 79.5t-157.5 29q-126 0 -221 -56t-158 -146t-94.5 -202.5 t-31.5 -226.5zM432 1653q18 45 44.5 83t57 66t64 44.5t66.5 17.5q40 0 72.5 -10.5t59.5 -26.5t50.5 -35t46.5 -35t46.5 -26.5t51.5 -10.5q27 0 51 11t44.5 29t38 42t32.5 51l66 -32q-22 -63 -50 -107t-60 -71t-66 -39.5t-68 -12.5q-40 0 -72.5 11t-60.5 27t-52.5 35t-48 35 t-46 27t-46.5 11q-44 0 -78.5 -33t-72.5 -90z" />
<glyph unicode="&#xd6;" d="M94 717q0 86 19 175t58 172.5t98 156.5t138 128t179 86.5t221 31.5q125 0 227.5 -32t183.5 -86.5t140.5 -128t99 -157t59 -172.5t19.5 -174t-19.5 -173.5t-58 -172t-97.5 -157t-138.5 -128.5t-179 -87t-220.5 -32q-130 0 -234.5 31t-185.5 84.5t-139.5 126t-96 155.5 t-55.5 173.5t-18 179.5zM295 754q0 -76 14 -157.5t42.5 -159.5t72 -148.5t103 -123t134 -83.5t166.5 -31q84 0 154 25.5t126 70t98 105t70 130t42.5 148.5t14.5 148q0 74 -16 164t-47 168.5t-76 147t-104 119t-131.5 79.5t-157.5 29q-126 0 -221 -56t-158 -146t-94.5 -202.5 t-31.5 -226.5zM517 1718q0 27 9 51t25 42t36 28.5t43 10.5t43 -10.5t35 -28.5t23.5 -42t8.5 -51t-9 -50.5t-24.5 -41t-36 -27.5t-42.5 -10q-23 0 -43 10t-35 27.5t-24 41t-9 50.5zM885 1718q0 27 9 51t25 42t36 28.5t43 10.5t43 -10.5t35 -28.5t23.5 -42t8.5 -51t-9 -50.5 t-24.5 -41t-36 -27.5t-42.5 -10q-23 0 -43 10t-35 27.5t-24 41t-9 50.5z" />
<glyph unicode="&#xd7;" horiz-adv-x="1130" d="M111 279l363 356l-359 356l95 92l357 -356l374 367l82 -88l-369 -365l369 -367l-92 -92l-370 367l-362 -359z" />
<glyph unicode="&#xd8;" d="M92 717q0 86 19 175t58 172.5t98 156.5t138 128t179 86.5t221 31.5q125 0 227 -32q67 -21 125 -52l94 163l111 -69l-97 -165q50 -41 91 -92q60 -73 99.5 -156.5t59 -172.5t19.5 -174t-19.5 -173.5t-58 -172t-97.5 -157t-138.5 -128.5t-179 -87t-220.5 -32q-130 0 -235 31 q-41 12 -79 28l-112 -190l-98 62l106 183q-1 1 -2 1q-81 54 -139.5 126.5t-96 156t-55.5 173.5t-18 179zM293 754q0 -76 14 -157.5t42.5 -159.5t71.5 -149q26 -42 57 -77l614 1060l-8 7q-59 50 -131 78.5t-155 28.5q-126 0 -221 -56t-158 -146t-94.5 -202.5t-31.5 -226.5z M568 130q42 -28 90 -48q75 -31 167 -31q84 0 154 25.5t126 70t98 105t70.5 130t42.5 145.5t14 151q0 86 -16.5 172t-47.5 164.5t-77 146.5q-4 5 -7 10z" />
<glyph unicode="&#xd9;" horiz-adv-x="1540" d="M63 1346v88h460v-68q-52 0 -80.5 -17.5t-42 -42.5t-16 -53t-2.5 -49v-516q0 -76 6 -150.5t22.5 -141.5t46 -124t76.5 -99t114 -65.5t159 -23.5q111 0 190.5 40t131 112.5t76 172.5t26.5 220l8 575q0 86 6 148l-147 -9v91h381v-68q-58 -2 -87.5 -21.5t-41.5 -52.5 t-12.5 -78t-0.5 -100l-4 -475q-1 -134 -29.5 -255.5t-93 -214t-169.5 -147.5t-259 -55q-164 0 -275 43t-178.5 132.5t-96.5 227.5t-29 328v416q0 27 0.5 60t2 66t2.5 62.5t3 49.5zM508 1820q-3 18 2 31.5t10 20.5q3 4 13.5 12.5t28 12t42 -2.5t54.5 -32l258 -246l-45 -60 l-297 183q-35 21 -49 42t-17 39z" />
<glyph unicode="&#xda;" horiz-adv-x="1540" d="M63 1346v88h460v-68q-52 0 -80.5 -17.5t-42 -42.5t-16 -53t-2.5 -49v-516q0 -76 6 -150.5t22.5 -141.5t46 -124t76.5 -99t114 -65.5t159 -23.5q111 0 190.5 40t131 112.5t76 172.5t26.5 220l8 575q0 86 6 148l-147 -9v91h381v-68q-58 -2 -87.5 -21.5t-41.5 -52.5 t-12.5 -78t-0.5 -100l-4 -475q-1 -134 -29.5 -255.5t-93 -214t-169.5 -147.5t-259 -55q-164 0 -275 43t-178.5 132.5t-96.5 227.5t-29 328v416q0 27 0.5 60t2 66t2.5 62.5t3 49.5zM702 1616l258 246q30 26 54.5 32t42 2.5t28 -12t13.5 -12.5q5 -7 10 -20.5t2 -31.5t-17 -39 t-49 -42l-297 -183z" />
<glyph unicode="&#xdb;" horiz-adv-x="1540" d="M63 1346v88h460v-68q-52 0 -80.5 -17.5t-42 -42.5t-16 -53t-2.5 -49v-516q0 -76 6 -150.5t22.5 -141.5t46 -124t76.5 -99t114 -65.5t159 -23.5q111 0 190.5 40t131 112.5t76 172.5t26.5 220l8 575q0 86 6 148l-147 -9v91h381v-68q-58 -2 -87.5 -21.5t-41.5 -52.5 t-12.5 -78t-0.5 -100l-4 -475q-1 -134 -29.5 -255.5t-93 -214t-169.5 -147.5t-259 -55q-164 0 -275 43t-178.5 132.5t-96.5 227.5t-29 328v416q0 27 0.5 60t2 66t2.5 62.5t3 49.5zM410 1616l397 291h5l376 -289l-45 -70l-340 181h-4l-348 -179z" />
<glyph unicode="&#xdc;" horiz-adv-x="1540" d="M63 1346v88h460v-68q-52 0 -80.5 -17.5t-42 -42.5t-16 -53t-2.5 -49v-516q0 -76 6 -150.5t22.5 -141.5t46 -124t76.5 -99t114 -65.5t159 -23.5q111 0 190.5 40t131 112.5t76 172.5t26.5 220l8 575q0 86 6 148l-147 -9v91h381v-68q-58 -2 -87.5 -21.5t-41.5 -52.5 t-12.5 -78t-0.5 -100l-4 -475q-1 -134 -29.5 -255.5t-93 -214t-169.5 -147.5t-259 -55q-164 0 -275 43t-178.5 132.5t-96.5 227.5t-29 328v416q0 27 0.5 60t2 66t2.5 62.5t3 49.5zM512 1718q0 27 9 51t25 42t36 28.5t43 10.5t43 -10.5t35 -28.5t23.5 -42t8.5 -51t-9 -50.5 t-24.5 -41t-36 -27.5t-42.5 -10q-23 0 -43 10t-35 27.5t-24 41t-9 50.5zM880 1718q0 27 9 51t25 42t36 28.5t43 10.5t43 -10.5t35 -28.5t23.5 -42t8.5 -51t-9 -50.5t-24.5 -41t-36 -27.5t-42.5 -10q-23 0 -43 10t-35 27.5t-24 41t-9 50.5z" />
<glyph unicode="&#xdd;" horiz-adv-x="1298" d="M-12 1343v91h528v-68q-71 0 -108 -16.5t-47.5 -46t3 -70.5t44.5 -90q38 -61 72 -115.5t68 -107.5t70.5 -108t80.5 -116h4q229 436 273 516t58 101t29 37l-162 -7v91h418v-68q-51 -3 -91 -20t-75 -49.5t-67.5 -81t-326.5 -601.5q-1 -99 -1.5 -234.5t0.5 -135.5 q0 -110 -6 -162l170 8v-90h-481v68q57 2 86 22t41 53.5t12 78.5v97l1 234l-355 563q-53 82 -78 137.5t-33 94.5zM611 1616l258 246q30 26 54.5 32t42 2.5t28 -12t13.5 -12.5q5 -7 10 -20.5t2 -31.5t-17 -39t-49 -42l-297 -183z" />
<glyph unicode="&#xde;" horiz-adv-x="1221" d="M113 0v68q49 1 77.5 15.5t42.5 39.5t17.5 59.5t3.5 76.5v945q0 42 1.5 79.5t5.5 68.5l-148 -9v91h461v-68q-50 -2 -78 -16t-42 -39.5t-18 -60.5q-3 -30 -3 -66l110 2q303 0 464.5 -100t161.5 -309q0 -54 -13.5 -108t-45.5 -104t-85 -92.5t-130 -74.5t-175 -50t-259 -18 h-28v-86q0 -57 -1.5 -96.5t-5.5 -65.5l148 8v-90h-461zM433 414q22 -3 40 -4q22 -2 45 -2q115 0 200 25.5t140.5 73t83 115t27.5 150.5q0 165 -103 250.5t-311 85.5q-38 0 -68 -1q-27 -1 -54 -3v-690z" />
<glyph unicode="&#xdf;" horiz-adv-x="1395" d="M51 932v92h168v2q0 114 31 211t93 168t154.5 111t214.5 40q38 0 88 -7t103 -26t103.5 -52.5t90.5 -87.5t64.5 -131t24.5 -182q0 -20 -1 -40.5t-5 -50.5q-25 2 -56 3.5t-65 1.5q-46 0 -92 -6t-83.5 -23t-61 -48t-23.5 -82q0 -46 23 -81.5t61 -64.5t86.5 -54.5t99 -51 t99 -54.5t86.5 -64.5t61 -80.5t23 -104q0 -78 -25.5 -135t-71 -94.5t-109.5 -55.5t-142 -18q-23 0 -52.5 4t-61.5 12t-63.5 20.5t-58.5 29.5l6 -49h-98v352h63q4 -64 23 -117t52 -91.5t79.5 -59.5t106.5 -21q34 0 66.5 10.5t58 31.5t40.5 52t15 72q0 45 -22.5 79t-60 61.5 t-85 50.5t-97 47t-97 52t-85 64t-60 83t-22.5 110q0 67 23.5 122t68.5 94t111.5 60t153.5 21h15v22q0 94 -15.5 159t-40.5 108.5t-57.5 68t-66 36.5t-59.5 15t-65 3q-82 0 -147 -39.5t-99.5 -106.5t-48.5 -164.5t-14 -220.5l2 -721q0 -41 -1 -72.5t-8 -66.5l129 6v-84h-417 v61q46 0 71 18.5t35.5 51.5t12 79t1.5 101l-2 625z" />
<glyph unicode="&#xe0;" horiz-adv-x="1057" d="M70 210q0 63 27.5 115t74 92.5t108.5 70t131.5 48.5t142 27.5t141.5 7.5v128q0 53 -6 103t-26.5 91t-64 65t-100.5 24q-33 0 -63 -5.5t-59 -18.5t-52.5 -34t-38.5 -50q15 -17 20.5 -37.5t5.5 -39.5q0 -12 -5 -27.5t-15.5 -29t-27 -22t-44.5 -8.5q-40 0 -63.5 29.5 t-23.5 71.5q0 51 30 96t84 78.5t128.5 52.5t162.5 19q172 0 253.5 -91t80.5 -289l-2 -460q0 -32 -1.5 -64.5t-6.5 -74.5l145 8v-86h-293q-6 35 -9 61t-5 55q-69 -69 -150.5 -109t-172.5 -40q-77 0 -134.5 18.5t-95.5 51.5t-57 77.5t-19 95.5zM265 235q1 -38 14.5 -66.5 t35 -47t49.5 -28t60 -9.5q41 0 77 8t68.5 23.5t63 37.5t61.5 51v297q-47 -2 -97.5 -8.5t-99 -20t-91.5 -34.5t-75 -50t-50 -67t-16 -86zM284 1493q0 13 3.5 24t13.5 24t25.5 19.5t32 6.5t39 -11.5t45.5 -44.5l172 -276l-57 -47l-230 217q-26 27 -35 50q-3 7 -6 17t-3 21z " />
<glyph unicode="&#xe1;" horiz-adv-x="1057" d="M70 210q0 63 27.5 115t74 92.5t108.5 70t131.5 48.5t142 27.5t141.5 7.5v128q0 53 -6 103t-26.5 91t-64 65t-100.5 24q-33 0 -63 -5.5t-59 -18.5t-52.5 -34t-38.5 -50q15 -17 20.5 -37.5t5.5 -39.5q0 -12 -5 -27.5t-15.5 -29t-27 -22t-44.5 -8.5q-40 0 -63.5 29.5 t-23.5 71.5q0 51 30 96t84 78.5t128.5 52.5t162.5 19q172 0 253.5 -91t80.5 -289l-2 -460q0 -32 -1.5 -64.5t-6.5 -74.5l145 8v-86h-293q-6 35 -9 61t-5 55q-69 -69 -150.5 -109t-172.5 -40q-77 0 -134.5 18.5t-95.5 51.5t-57 77.5t-19 95.5zM265 235q1 -38 14.5 -66.5 t35 -47t49.5 -28t60 -9.5q41 0 77 8t68.5 23.5t63 37.5t61.5 51v297q-47 -2 -97.5 -8.5t-99 -20t-91.5 -34.5t-75 -50t-50 -67t-16 -86zM396 1235l172 276q23 33 45.5 44.5t39 11.5t32 -6.5t25.5 -19.5t13.5 -24t3.5 -24q0 -11 -3 -21t-6 -17q-9 -23 -35 -50l-230 -217z" />
<glyph unicode="&#xe2;" horiz-adv-x="1057" d="M70 210q0 63 27.5 115t74 92.5t108.5 70t131.5 48.5t142 27.5t141.5 7.5v128q0 53 -6 103t-26.5 91t-64 65t-100.5 24q-33 0 -63 -5.5t-59 -18.5t-52.5 -34t-38.5 -50q15 -17 20.5 -37.5t5.5 -39.5q0 -12 -5 -27.5t-15.5 -29t-27 -22t-44.5 -8.5q-40 0 -63.5 29.5 t-23.5 71.5q0 51 30 96t84 78.5t128.5 52.5t162.5 19q172 0 253.5 -91t80.5 -289l-2 -460q0 -32 -1.5 -64.5t-6.5 -74.5l145 8v-86h-293q-6 35 -9 61t-5 55q-69 -69 -150.5 -109t-172.5 -40q-77 0 -134.5 18.5t-95.5 51.5t-57 77.5t-19 95.5zM187 1268l326 325h4l305 -333 l-55 -66l-260 223h-4l-265 -209zM265 235q1 -38 14.5 -66.5t35 -47t49.5 -28t60 -9.5q41 0 77 8t68.5 23.5t63 37.5t61.5 51v297q-47 -2 -97.5 -8.5t-99 -20t-91.5 -34.5t-75 -50t-50 -67t-16 -86z" />
<glyph unicode="&#xe3;" horiz-adv-x="1057" d="M70 210q0 63 27.5 115t74 92.5t108.5 70t131.5 48.5t142 27.5t141.5 7.5v128q0 53 -6 103t-26.5 91t-64 65t-100.5 24q-33 0 -63 -5.5t-59 -18.5t-52.5 -34t-38.5 -50q15 -17 20.5 -37.5t5.5 -39.5q0 -12 -5 -27.5t-15.5 -29t-27 -22t-44.5 -8.5q-40 0 -63.5 29.5 t-23.5 71.5q0 51 30 96t84 78.5t128.5 52.5t162.5 19q172 0 253.5 -91t80.5 -289l-2 -460q0 -32 -1.5 -64.5t-6.5 -74.5l145 8v-86h-293q-6 35 -9 61t-5 55q-69 -69 -150.5 -109t-172.5 -40q-77 0 -134.5 18.5t-95.5 51.5t-57 77.5t-19 95.5zM152 1313q13 36 36.5 67.5 t52.5 55.5t60 38t60 15q48 0 84 -17t66 -37.5t58 -37.5t62 -17q45 0 85 27t64 72l60 -31q-17 -51 -41.5 -87.5t-53 -60.5t-58 -35.5t-56.5 -11.5q-48 0 -85 17.5t-68.5 38t-59 38t-55.5 17.5q-38 0 -79.5 -20.5t-70.5 -65.5zM265 235q1 -38 14.5 -66.5t35 -47t49.5 -28 t60 -9.5q41 0 77 8t68.5 23.5t63 37.5t61.5 51v297q-47 -2 -97.5 -8.5t-99 -20t-91.5 -34.5t-75 -50t-50 -67t-16 -86z" />
<glyph unicode="&#xe4;" horiz-adv-x="1057" d="M70 210q0 63 27.5 115t74 92.5t108.5 70t131.5 48.5t142 27.5t141.5 7.5v128q0 53 -6 103t-26.5 91t-64 65t-100.5 24q-33 0 -63 -5.5t-59 -18.5t-52.5 -34t-38.5 -50q15 -17 20.5 -37.5t5.5 -39.5q0 -12 -5 -27.5t-15.5 -29t-27 -22t-44.5 -8.5q-40 0 -63.5 29.5 t-23.5 71.5q0 51 30 96t84 78.5t128.5 52.5t162.5 19q172 0 253.5 -91t80.5 -289l-2 -460q0 -32 -1.5 -64.5t-6.5 -74.5l145 8v-86h-293q-6 35 -9 61t-5 55q-69 -69 -150.5 -109t-172.5 -40q-77 0 -134.5 18.5t-95.5 51.5t-57 77.5t-19 95.5zM226 1369q0 25 8.5 48 t22.5 39.5t33 26.5t39 10q22 0 40.5 -10t32 -26.5t21 -39.5t7.5 -48t-8.5 -47t-22.5 -38.5t-32.5 -26t-38.5 -9.5q-21 0 -39.5 9.5t-32.5 26t-22 38.5t-8 47zM265 235q1 -38 14.5 -66.5t35 -47t49.5 -28t60 -9.5q41 0 77 8t68.5 23.5t63 37.5t61.5 51v297q-47 -2 -97.5 -8.5 t-99 -20t-91.5 -34.5t-75 -50t-50 -67t-16 -86zM568 1369q0 25 8.5 48t22.5 39.5t33 26.5t39 10q22 0 40.5 -10t32 -26.5t21 -39.5t7.5 -48t-8.5 -47t-22.5 -38.5t-32.5 -26t-38.5 -9.5q-21 0 -39.5 9.5t-32.5 26t-22 38.5t-8 47z" />
<glyph unicode="&#xe5;" horiz-adv-x="1057" d="M70 210q0 63 27.5 115t74 92.5t108.5 70t131.5 48.5t142 27.5t141.5 7.5v128q0 53 -6 103t-26.5 91t-64 65t-100.5 24q-33 0 -63 -5.5t-59 -18.5t-52.5 -34t-38.5 -50q15 -17 20.5 -37.5t5.5 -39.5q0 -12 -5 -27.5t-15.5 -29t-27 -22t-44.5 -8.5q-40 0 -63.5 29.5 t-23.5 71.5q0 51 30 96t84 78.5t128.5 52.5t162.5 19q172 0 253.5 -91t80.5 -289l-2 -460q0 -32 -1.5 -64.5t-6.5 -74.5l145 8v-86h-293q-6 35 -9 61t-5 55q-69 -69 -150.5 -109t-172.5 -40q-77 0 -134.5 18.5t-95.5 51.5t-57 77.5t-19 95.5zM265 235q1 -38 14.5 -66.5 t35 -47t49.5 -28t60 -9.5q41 0 77 8t68.5 23.5t63 37.5t61.5 51v297q-47 -2 -97.5 -8.5t-99 -20t-91.5 -34.5t-75 -50t-50 -67t-16 -86zM316 1362q0 44 17.5 80t45.5 62t63.5 40.5t72.5 14.5q36 0 71.5 -11t64 -34t47.5 -60.5t19 -79.5q0 -52 -16.5 -88t-44.5 -63 t-63.5 -41.5t-73.5 -14.5t-74.5 11.5t-65 35.5t-46 60.5t-17.5 87.5zM424 1372q0 -29 6.5 -54.5t19 -45t30.5 -30.5t41 -11q38 0 63 32.5t25 88.5q0 66 -24.5 104.5t-69.5 38.5q-35 0 -63 -31.5t-28 -91.5z" />
<glyph unicode="&#xe6;" horiz-adv-x="1591" d="M70 205q0 64 27 115t73 91t107 68.5t130 47t141.5 27.5t140.5 9v125q0 55 -5.5 107.5t-26.5 94t-61.5 67t-109.5 25.5q-34 0 -66 -8.5t-59 -24.5t-47.5 -38.5t-31.5 -50.5q14 -13 21 -34t7 -33t-5 -27t-15.5 -28.5t-27.5 -22.5t-41 -9q-38 0 -61.5 26.5t-23.5 71.5 q0 46 26 91.5t75.5 81.5t119.5 58t159 22q103 0 174.5 -46.5t108.5 -130.5q57 78 140.5 127.5t193.5 49.5q78 0 144 -25t114.5 -79.5t76 -140.5t28.5 -208l-625 -12q-3 -39 -3 -74q0 -108 23 -191.5t64 -140t97 -85.5t122 -29q48 0 88.5 13t75 35.5t64 54t55.5 67.5l51 -41 q-42 -64 -87.5 -108.5t-94 -72.5t-99 -40.5t-102.5 -12.5q-121 0 -215 46t-151 148h-2q-39 -53 -84 -90t-94 -60t-102 -33.5t-108 -10.5q-70 0 -125.5 18t-94 49.5t-59 75.5t-20.5 95zM265 239q0 -47 16 -77t41 -47.5t54.5 -24.5t55.5 -7q85 0 151.5 36t123.5 100 q-3 21 -6 55.5t-6 73t-5.5 77t-3.5 68.5q-69 -3 -143 -17t-136 -43.5t-102 -77t-40 -116.5zM885 678h426q0 54 -6.5 107.5t-26.5 96t-56.5 69t-96.5 26.5t-102.5 -24t-70.5 -65t-44 -95t-23 -115z" />
<glyph unicode="&#xe7;" horiz-adv-x="1094" d="M86 494q0 71 17.5 140t50.5 131.5t80 116t106.5 92.5t130 61t149.5 22q85 0 155 -21t120 -56t77 -81t27 -95q0 -22 -6.5 -41.5t-18.5 -34.5t-29 -23.5t-41 -8.5q-27 0 -45 9t-29 23t-16 30t-5 30q0 20 6.5 42t24.5 41q-14 36 -41 57.5t-58.5 33.5t-62.5 15.5t-53 3.5 q-70 0 -130.5 -28.5t-104.5 -83.5t-69.5 -137t-25.5 -188q0 -102 25.5 -188.5t71.5 -149t111 -97.5t144 -35q48 0 95 13.5t89 37.5t77.5 56t60.5 69l53 -41q-41 -64 -93.5 -109.5t-110 -75t-116 -43.5t-110.5 -14q-15 0 -30 1l-40 -120q29 18 67 27t73 9q63 0 100 -36 t37 -99q0 -41 -20 -74t-53 -58.5t-75.5 -44t-87 -31.5t-88 -21.5t-78.5 -13.5l-12 69q52 9 97 23.5t78 34t52 44t19 54.5q0 33 -19 47t-46 14q-23 0 -48 -8t-45 -22l-69 34l50 188q-30 8 -58 18q-92 36 -161 103.5t-109 165.5t-40 223z" />
<glyph unicode="&#xe8;" horiz-adv-x="1110" d="M86 510q0 108 37 206.5t105 174.5t163 121t211 45q85 0 160.5 -28t132.5 -84t90 -141.5t33 -199.5l-721 -12q-1 -118 18 -214t60 -164t105.5 -105t154.5 -37q48 0 98 13t96.5 35.5t85.5 54t65 67.5l50 -41q-42 -64 -97.5 -108.5t-115 -72.5t-119.5 -40.5t-112 -12.5 q-106 0 -197.5 38t-158.5 109t-105.5 171t-38.5 225zM303 678h522q0 54 -12 107.5t-38.5 96t-68.5 69t-102 26.5q-120 0 -198 -70.5t-103 -228.5zM327 1493q0 13 3.5 24t13.5 24t25.5 19.5t32 6.5t39 -11.5t45.5 -44.5l172 -276l-57 -47l-230 217q-26 27 -35 50q-3 7 -6 17 t-3 21z" />
<glyph unicode="&#xe9;" horiz-adv-x="1110" d="M86 510q0 108 37 206.5t105 174.5t163 121t211 45q85 0 160.5 -28t132.5 -84t90 -141.5t33 -199.5l-721 -12q-1 -118 18 -214t60 -164t105.5 -105t154.5 -37q48 0 98 13t96.5 35.5t85.5 54t65 67.5l50 -41q-42 -64 -97.5 -108.5t-115 -72.5t-119.5 -40.5t-112 -12.5 q-106 0 -197.5 38t-158.5 109t-105.5 171t-38.5 225zM303 678h522q0 54 -12 107.5t-38.5 96t-68.5 69t-102 26.5q-120 0 -198 -70.5t-103 -228.5zM483 1235l172 276q23 33 45.5 44.5t39 11.5t32 -6.5t25.5 -19.5t13.5 -24t3.5 -24q0 -11 -3 -21t-6 -17q-9 -23 -35 -50 l-230 -217z" />
<glyph unicode="&#xea;" horiz-adv-x="1110" d="M86 510q0 108 37 206.5t105 174.5t163 121t211 45q85 0 160.5 -28t132.5 -84t90 -141.5t33 -199.5l-721 -12q-1 -118 18 -214t60 -164t105.5 -105t154.5 -37q48 0 98 13t96.5 35.5t85.5 54t65 67.5l50 -41q-42 -64 -97.5 -108.5t-115 -72.5t-119.5 -40.5t-112 -12.5 q-106 0 -197.5 38t-158.5 109t-105.5 171t-38.5 225zM275 1268l326 325h4l305 -333l-55 -66l-260 223h-4l-265 -209zM303 678h522q0 54 -12 107.5t-38.5 96t-68.5 69t-102 26.5q-120 0 -198 -70.5t-103 -228.5z" />
<glyph unicode="&#xeb;" horiz-adv-x="1110" d="M86 510q0 108 37 206.5t105 174.5t163 121t211 45q85 0 160.5 -28t132.5 -84t90 -141.5t33 -199.5l-721 -12q-1 -118 18 -214t60 -164t105.5 -105t154.5 -37q48 0 98 13t96.5 35.5t85.5 54t65 67.5l50 -41q-42 -64 -97.5 -108.5t-115 -72.5t-119.5 -40.5t-112 -12.5 q-106 0 -197.5 38t-158.5 109t-105.5 171t-38.5 225zM303 678h522q0 54 -12 107.5t-38.5 96t-68.5 69t-102 26.5q-120 0 -198 -70.5t-103 -228.5zM308 1369q0 25 8.5 48t22.5 39.5t33 26.5t39 10q22 0 40.5 -10t32 -26.5t21 -39.5t7.5 -48t-8.5 -47t-22.5 -38.5t-32.5 -26 t-38.5 -9.5q-21 0 -39.5 9.5t-32.5 26t-22 38.5t-8 47zM650 1369q0 25 8.5 48t22.5 39.5t33 26.5t39 10q22 0 40.5 -10t32 -26.5t21 -39.5t7.5 -48t-8.5 -47t-22.5 -38.5t-32.5 -26t-38.5 -9.5q-21 0 -39.5 9.5t-32.5 26t-22 38.5t-8 47z" />
<glyph unicode="&#xec;" horiz-adv-x="575" d="M9 1493q0 13 3.5 24t13.5 24t25.5 19.5t32 6.5t39 -11.5t45.5 -44.5l172 -276l-57 -47l-230 217q-26 27 -35 50q-3 7 -6 17t-3 21zM73 903v86q67 0 111 4.5t72 12.5t43.5 17.5t27.5 20.5h59v-827q0 -41 -1 -72.5t-7 -66.5l129 6v-84h-418v61q46 0 71 18.5t36 51.5 t12.5 79t1.5 101v467q0 32 1.5 62t6.5 71z" />
<glyph unicode="&#xed;" horiz-adv-x="578" d="M75 903v86q67 0 111 4.5t72 12.5t43.5 17.5t27.5 20.5h59v-827q0 -41 -1 -72.5t-7 -66.5l129 6v-84h-418v61q46 0 71 18.5t36 51.5t12.5 79t1.5 101v467q0 32 1.5 62t6.5 71zM206 1235l172 276q23 33 45.5 44.5t39 11.5t32 -6.5t25.5 -19.5t13.5 -24t3.5 -24 q0 -11 -3 -21t-6 -17q-9 -23 -35 -50l-230 -217z" />
<glyph unicode="&#xee;" horiz-adv-x="575" d="M0 1268l295 325h4l275 -333l-56 -66l-229 213h-4l-234 -199zM75 903v86q67 0 111 4.5t72 12.5t43.5 17.5t27.5 20.5h59v-827q0 -41 -1 -72.5t-7 -66.5l129 6v-84h-418v61q46 0 71 18.5t36 51.5t12.5 79t1.5 101v467q0 32 1.5 62t6.5 71z" />
<glyph unicode="&#xef;" horiz-adv-x="575" d="M39 1368q0 26 8.5 48.5t22.5 39.5t33 26.5t39 9.5q22 0 40.5 -9.5t32 -26.5t21 -39.5t7.5 -48.5q0 -25 -8.5 -47t-22.5 -38.5t-32.5 -25.5t-38.5 -9q-21 0 -39.5 9t-32.5 25.5t-22 38.5t-8 47zM75 903v86q67 0 111 4.5t72 12.5t43.5 17.5t27.5 20.5h59v-827 q0 -41 -1 -72.5t-7 -66.5l129 6v-84h-418v61q46 0 71 18.5t36 51.5t12.5 79t1.5 101v467q0 32 1.5 62t6.5 71zM326 1368q0 26 8.5 48.5t22.5 39.5t33 26.5t39 9.5q22 0 40.5 -9.5t32 -26.5t21 -39.5t7.5 -48.5q0 -25 -8.5 -47t-22.5 -38.5t-32.5 -25.5t-38.5 -9 q-21 0 -39.5 9t-32.5 25.5t-22 38.5t-8 47z" />
<glyph unicode="&#xf0;" horiz-adv-x="1145" d="M88 455q0 109 31 210.5t89 179.5t141.5 124.5t189.5 46.5q37 0 78 -7t79.5 -22.5t72 -41.5t56.5 -64h4q-15 61 -43 128t-69 132.5t-95.5 124.5t-123.5 104l-125 -158l-74 62l119 141q-48 21 -99 35.5t-108 19.5l9 86q73 -4 138.5 -20t126.5 -42l111 130l59 -55l-90 -114 q110 -62 196 -156.5t145 -211.5t90.5 -253.5t31.5 -276.5q0 -122 -28.5 -229t-89.5 -187.5t-155 -127t-225 -46.5q-92 0 -172.5 33.5t-140.5 96.5t-94.5 153.5t-34.5 204.5zM293 498q0 -110 20.5 -193.5t56.5 -140.5t85.5 -86t107.5 -29q56 0 107 26.5t89.5 79t62.5 131 t24 183.5q0 48 -5.5 101t-18 104.5t-33.5 98t-52 82t-72.5 56.5t-95.5 21q-67 0 -118.5 -35t-86.5 -95t-53 -138.5t-18 -165.5z" />
<glyph unicode="&#xf1;" horiz-adv-x="1241" d="M76 903v86q67 0 109 4.5t67.5 12.5t39.5 17.5t26 20.5h59q2 -23 4.5 -52.5t4.5 -71.5q33 29 72.5 54t82.5 43.5t88.5 29t89.5 10.5q178 0 260 -111.5t82 -346.5v-382q0 -41 -1 -72.5t-7 -66.5l129 6v-84h-418v61q47 0 71.5 18.5t35.5 51.5t12.5 79t1.5 101v286 q-2 177 -58 266.5t-178 89.5q-37 0 -74 -11t-71 -28.5t-64 -41.5t-52 -52q1 -18 1 -38.5v-41.5l-2 -523q0 -41 -1 -72.5t-7 -66.5l129 6v-84h-418v61q47 0 71.5 18.5t35 51.5t12 79t2.5 101l2 467q0 32 1 65t7 68zM279 1313q13 36 36.5 67.5t52.5 55.5t60 38t60 15 q48 0 84 -17t66 -37.5t58 -37.5t62 -17q45 0 85 27t64 72l60 -31q-17 -51 -41.5 -87.5t-53 -60.5t-58 -35.5t-56.5 -11.5q-48 0 -85 17.5t-68.5 38t-59 38t-55.5 17.5q-38 0 -79.5 -20.5t-70.5 -65.5z" />
<glyph unicode="&#xf2;" horiz-adv-x="1198" d="M84 487q0 121 39.5 225.5t108.5 181t163 120t203 43.5q108 0 202 -39.5t163.5 -109t110 -165t40.5 -206.5q0 -119 -39.5 -223t-109 -181t-164 -121.5t-203.5 -44.5q-108 0 -201.5 38.5t-163 107.5t-109.5 164.5t-40 209.5zM293 547q0 -95 19.5 -185t59.5 -159.5 t100.5 -111.5t141.5 -42t136.5 36.5t90 96.5t49.5 137t15 158q0 92 -17 182t-54 161t-95.5 115t-140.5 44q-81 0 -138.5 -36t-94.5 -96t-54.5 -138t-17.5 -162zM365 1493q0 13 3.5 24t13.5 24t25.5 19.5t32 6.5t39 -11.5t45.5 -44.5l172 -276l-57 -47l-230 217 q-26 27 -35 50q-3 7 -6 17t-3 21z" />
<glyph unicode="&#xf3;" horiz-adv-x="1198" d="M84 487q0 121 39.5 225.5t108.5 181t163 120t203 43.5q108 0 202 -39.5t163.5 -109t110 -165t40.5 -206.5q0 -119 -39.5 -223t-109 -181t-164 -121.5t-203.5 -44.5q-108 0 -201.5 38.5t-163 107.5t-109.5 164.5t-40 209.5zM293 547q0 -95 19.5 -185t59.5 -159.5 t100.5 -111.5t141.5 -42t136.5 36.5t90 96.5t49.5 137t15 158q0 92 -17 182t-54 161t-95.5 115t-140.5 44q-81 0 -138.5 -36t-94.5 -96t-54.5 -138t-17.5 -162zM483 1235l172 276q23 33 45.5 44.5t39 11.5t32 -6.5t25.5 -19.5t13.5 -24t3.5 -24q0 -11 -3 -21t-6 -17 q-9 -23 -35 -50l-230 -217z" />
<glyph unicode="&#xf4;" horiz-adv-x="1198" d="M84 487q0 121 39.5 225.5t108.5 181t163 120t203 43.5q108 0 202 -39.5t163.5 -109t110 -165t40.5 -206.5q0 -119 -39.5 -223t-109 -181t-164 -121.5t-203.5 -44.5q-108 0 -201.5 38.5t-163 107.5t-109.5 164.5t-40 209.5zM280 1268l326 325h4l305 -333l-55 -66l-260 223 h-4l-265 -209zM293 547q0 -95 19.5 -185t59.5 -159.5t100.5 -111.5t141.5 -42t136.5 36.5t90 96.5t49.5 137t15 158q0 92 -17 182t-54 161t-95.5 115t-140.5 44q-81 0 -138.5 -36t-94.5 -96t-54.5 -138t-17.5 -162z" />
<glyph unicode="&#xf5;" horiz-adv-x="1198" d="M84 487q0 121 39.5 225.5t108.5 181t163 120t203 43.5q108 0 202 -39.5t163.5 -109t110 -165t40.5 -206.5q0 -119 -39.5 -223t-109 -181t-164 -121.5t-203.5 -44.5q-108 0 -201.5 38.5t-163 107.5t-109.5 164.5t-40 209.5zM254 1313q13 36 36.5 67.5t52.5 55.5t60 38 t60 15q48 0 84 -17t66 -37.5t58 -37.5t62 -17q45 0 85 27t64 72l60 -31q-17 -51 -41.5 -87.5t-53 -60.5t-58 -35.5t-56.5 -11.5q-48 0 -85 17.5t-68.5 38t-59 38t-55.5 17.5q-38 0 -79.5 -20.5t-70.5 -65.5zM293 547q0 -95 19.5 -185t59.5 -159.5t100.5 -111.5t141.5 -42 t136.5 36.5t90 96.5t49.5 137t15 158q0 92 -17 182t-54 161t-95.5 115t-140.5 44q-81 0 -138.5 -36t-94.5 -96t-54.5 -138t-17.5 -162z" />
<glyph unicode="&#xf6;" horiz-adv-x="1198" d="M84 487q0 121 39.5 225.5t108.5 181t163 120t203 43.5q108 0 202 -39.5t163.5 -109t110 -165t40.5 -206.5q0 -119 -39.5 -223t-109 -181t-164 -121.5t-203.5 -44.5q-108 0 -201.5 38.5t-163 107.5t-109.5 164.5t-40 209.5zM293 547q0 -95 19.5 -185t59.5 -159.5 t100.5 -111.5t141.5 -42t136.5 36.5t90 96.5t49.5 137t15 158q0 92 -17 182t-54 161t-95.5 115t-140.5 44q-81 0 -138.5 -36t-94.5 -96t-54.5 -138t-17.5 -162zM319 1369q0 25 8.5 48t22.5 39.5t33 26.5t39 10q22 0 40.5 -10t32 -26.5t21 -39.5t7.5 -48t-8.5 -47 t-22.5 -38.5t-32.5 -26t-38.5 -9.5q-21 0 -39.5 9.5t-32.5 26t-22 38.5t-8 47zM661 1369q0 25 8.5 48t22.5 39.5t33 26.5t39 10q22 0 40.5 -10t32 -26.5t21 -39.5t7.5 -48t-8.5 -47t-22.5 -38.5t-32.5 -26t-38.5 -9.5q-21 0 -39.5 9.5t-32.5 26t-22 38.5t-8 47z" />
<glyph unicode="&#xf7;" horiz-adv-x="541" d="M152 221q0 28 10 52.5t26.5 42.5t38.5 28.5t46 10.5q25 0 46.5 -10.5t37.5 -28.5t25 -42.5t9 -52.5q0 -27 -10 -51t-26.5 -42t-38 -28t-45.5 -10t-45.5 10t-38 28t-26 42t-9.5 51zM152 923q0 28 10 52.5t26.5 42.5t38.5 28.5t46 10.5q25 0 46.5 -10.5t37.5 -28.5 t25 -42.5t9 -52.5q0 -27 -10 -51t-26.5 -42t-38 -28t-45.5 -10t-45.5 10t-38 28t-26 42t-9.5 51z" />
<glyph unicode="&#xf8;" horiz-adv-x="1198" d="M84 487q0 121 39.5 225.5t108.5 181t163 120t203 43.5q137 0 252 -64l104 164l97 -63l-108 -167l20 -19q70 -69 110.5 -164t40.5 -207q0 -119 -39.5 -223t-109 -181t-164 -121.5t-203.5 -44.5q-66 0 -127 14t-115 43l-116 -178l-76 56l110 175q-88 69 -139 174t-51 236z M293 547q0 -89 17.5 -174.5t52.5 -154.5l423 672q-38 43 -83 66t-105 23q-81 0 -138.5 -36t-94.5 -96t-54.5 -138t-17.5 -162zM425 130q40 -40 86 -60.5t103 -20.5q81 0 136.5 36.5t90 96.5t49.5 137t15 158q0 46 -4.5 91.5t-12.5 90.5q-7 34 -16 65.5t-22 60.5z" />
<glyph unicode="&#xf9;" horiz-adv-x="1223" d="M53 905v84h64q43 0 74 4.5t53 12.5t36.5 17.5t26.5 20.5h59v-624q0 -89 12 -154.5t38.5 -109t68.5 -64t103 -20.5q39 0 76.5 13t71.5 35t63.5 50t50.5 60v85v440q0 50 2 85.5t8 70.5l-147 -6v84h63q44 0 75 4.5t53 12.5t36.5 17.5t26.5 20.5h59l-2 -774q0 -16 -0.5 -40.5 t-1.5 -51t-2.5 -53t-3.5 -47.5l147 8v-86h-293q-5 35 -8.5 64.5t-5.5 58.5q-32 -32 -71 -60.5t-82.5 -49.5t-89.5 -33.5t-91 -12.5q-84 0 -147 22.5t-105 74.5t-63 137.5t-21 212.5v364q0 32 1 65t7 68zM373 1493q0 13 3.5 24t13.5 24t25.5 19.5t32 6.5t39 -11.5t45.5 -44.5 l172 -276l-57 -47l-230 217q-26 27 -35 50q-3 7 -6 17t-3 21z" />
<glyph unicode="&#xfa;" horiz-adv-x="1223" d="M53 905v84h64q43 0 74 4.5t53 12.5t36.5 17.5t26.5 20.5h59v-624q0 -89 12 -154.5t38.5 -109t68.5 -64t103 -20.5q39 0 76.5 13t71.5 35t63.5 50t50.5 60v85v440q0 50 2 85.5t8 70.5l-147 -6v84h63q44 0 75 4.5t53 12.5t36.5 17.5t26.5 20.5h59l-2 -774q0 -16 -0.5 -40.5 t-1.5 -51t-2.5 -53t-3.5 -47.5l147 8v-86h-293q-5 35 -8.5 64.5t-5.5 58.5q-32 -32 -71 -60.5t-82.5 -49.5t-89.5 -33.5t-91 -12.5q-84 0 -147 22.5t-105 74.5t-63 137.5t-21 212.5v364q0 32 1 65t7 68zM525 1235l172 276q23 33 45.5 44.5t39 11.5t32 -6.5t25.5 -19.5 t13.5 -24t3.5 -24q0 -11 -3 -21t-6 -17q-9 -23 -35 -50l-230 -217z" />
<glyph unicode="&#xfb;" horiz-adv-x="1223" d="M53 905v84h64q43 0 74 4.5t53 12.5t36.5 17.5t26.5 20.5h59v-624q0 -89 12 -154.5t38.5 -109t68.5 -64t103 -20.5q39 0 76.5 13t71.5 35t63.5 50t50.5 60v85v440q0 50 2 85.5t8 70.5l-147 -6v84h63q44 0 75 4.5t53 12.5t36.5 17.5t26.5 20.5h59l-2 -774q0 -16 -0.5 -40.5 t-1.5 -51t-2.5 -53t-3.5 -47.5l147 8v-86h-293q-5 35 -8.5 64.5t-5.5 58.5q-32 -32 -71 -60.5t-82.5 -49.5t-89.5 -33.5t-91 -12.5q-84 0 -147 22.5t-105 74.5t-63 137.5t-21 212.5v364q0 32 1 65t7 68zM296 1268l326 325h4l305 -333l-55 -66l-260 223h-4l-265 -209z" />
<glyph unicode="&#xfc;" horiz-adv-x="1223" d="M53 905v84h64q43 0 74 4.5t53 12.5t36.5 17.5t26.5 20.5h59v-624q0 -89 12 -154.5t38.5 -109t68.5 -64t103 -20.5q39 0 76.5 13t71.5 35t63.5 50t50.5 60v85v440q0 50 2 85.5t8 70.5l-147 -6v84h63q44 0 75 4.5t53 12.5t36.5 17.5t26.5 20.5h59l-2 -774q0 -16 -0.5 -40.5 t-1.5 -51t-2.5 -53t-3.5 -47.5l147 8v-86h-293q-5 35 -8.5 64.5t-5.5 58.5q-32 -32 -71 -60.5t-82.5 -49.5t-89.5 -33.5t-91 -12.5q-84 0 -147 22.5t-105 74.5t-63 137.5t-21 212.5v364q0 32 1 65t7 68zM352 1369q0 25 8.5 48t22.5 39.5t33 26.5t39 10q22 0 40.5 -10 t32 -26.5t21 -39.5t7.5 -48t-8.5 -47t-22.5 -38.5t-32.5 -26t-38.5 -9.5q-21 0 -39.5 9.5t-32.5 26t-22 38.5t-8 47zM694 1369q0 25 8.5 48t22.5 39.5t33 26.5t39 10q22 0 40.5 -10t32 -26.5t21 -39.5t7.5 -48t-8.5 -47t-22.5 -38.5t-32.5 -26t-38.5 -9.5q-21 0 -39.5 9.5 t-32.5 26t-22 38.5t-8 47z" />
<glyph unicode="&#xfd;" horiz-adv-x="1081" d="M8 940v84h424v-61l-9 -1q-43 -3 -65.5 -19t-27.5 -45.5t6 -77t281 -613.5q213 621 226.5 653t26 56t23.5 32l-141 -8v84h321v-61q-38 -15 -65.5 -38.5t-48.5 -57t-39 -76.5t-293 -809q-47 -129 -86 -229.5t-81.5 -168.5t-93 -103.5t-118.5 -35.5q-32 0 -60 7.5t-49 23 t-33 39t-12 54.5q0 19 6 37t17.5 32t28 22.5t36.5 8.5q24 0 40.5 -9t26.5 -23t14 -29.5t4 -27.5q0 -6 -0.5 -13.5t-2.5 -14.5q11 -5 23 -5q18 0 46.5 15.5t57.5 65.5q26 45 62.5 134.5t81.5 214.5q-347 743 -366 788t-31.5 79t-20 59t-10.5 42zM528 1235l172 276 q23 33 45.5 44.5t39 11.5t32 -6.5t25.5 -19.5t13.5 -24t3.5 -24q0 -11 -3 -21t-6 -17q-9 -23 -35 -50l-230 -217z" />
<glyph unicode="&#xfe;" horiz-adv-x="1182" d="M18 1405v86q67 0 110.5 4.5t71 12.5t43 17.5t27.5 20.5h59l-1 -599q63 51 143 80.5t165 29.5q93 0 176 -36t145.5 -103t99 -162.5t36.5 -214.5q0 -131 -41.5 -237t-112.5 -181t-166 -115.5t-202 -40.5q-72 0 -132.5 15.5t-111.5 48.5v-336q0 -41 -1 -72.5t-7 -66.5l129 6 v-84h-418v61q47 0 71.5 18.5t35 51.5t12 79t2.5 101l4 1491q0 32 1 65t7 68zM327 127q103 -78 240 -78q73 0 131 34t99 95t63 145.5t22 186.5q0 82 -18 162.5t-56 143.5t-97.5 102t-143.5 39q-72 0 -133 -28.5t-106 -76.5z" />
<glyph unicode="&#xff;" horiz-adv-x="1081" d="M8 940v84h424v-61l-9 -1q-43 -3 -65.5 -19t-27.5 -45.5t6 -77t281 -613.5q213 621 226.5 653t26 56t23.5 32l-141 -8v84h321v-61q-38 -15 -65.5 -38.5t-48.5 -57t-39 -76.5t-293 -809q-47 -129 -86 -229.5t-81.5 -168.5t-93 -103.5t-118.5 -35.5q-32 0 -60 7.5t-49 23 t-33 39t-12 54.5q0 19 6 37t17.5 32t28 22.5t36.5 8.5q24 0 40.5 -9t26.5 -23t14 -29.5t4 -27.5q0 -6 -0.5 -13.5t-2.5 -14.5q11 -5 23 -5q18 0 46.5 15.5t57.5 65.5q26 45 62.5 134.5t81.5 214.5q-347 743 -366 788t-31.5 79t-20 59t-10.5 42zM320 1369q0 25 8.5 48 t22.5 39.5t33 26.5t39 10q22 0 40.5 -10t32 -26.5t21 -39.5t7.5 -48t-8.5 -47t-22.5 -38.5t-32.5 -26t-38.5 -9.5q-21 0 -39.5 9.5t-32.5 26t-22 38.5t-8 47zM662 1369q0 25 8.5 48t22.5 39.5t33 26.5t39 10q22 0 40.5 -10t32 -26.5t21 -39.5t7.5 -48t-8.5 -47t-22.5 -38.5 t-32.5 -26t-38.5 -9.5q-21 0 -39.5 9.5t-32.5 26t-22 38.5t-8 47z" />
<glyph unicode="&#x152;" horiz-adv-x="2093" d="M94 674q0 96 19 191.5t57.5 182.5t97.5 162.5t139 131.5t181.5 89t225.5 36q28 0 61 -2.5t66.5 -7t67.5 -10.5t64 -13h844l10 -359h-68q0 88 -20.5 144t-55.5 88t-83.5 43.5t-103.5 11.5h-13l-176 -4q-58 -2 -89.5 -17t-46.5 -44.5t-17.5 -74.5t-2.5 -108v-330h152 q64 0 110 5t75 24t42.5 57.5t13.5 106.5h68v-447h-68q0 67 -13.5 104t-42.5 54t-75 20t-110 3q-35 0 -76.5 -2t-75.5 -7v-454q0 -57 -1.5 -95.5t-4.5 -64.5l393 -12h15q63 0 114.5 17t88 55.5t56 100t19.5 150.5h71l-14 -399h-915q-82 -17 -153.5 -25t-131.5 -8 q-162 0 -290.5 53t-218.5 147.5t-137.5 224t-47.5 282.5zM295 718q0 -149 40 -269t113 -205.5t175 -131.5t225 -46q57 0 109.5 7.5t115.5 24.5v1235q-60 26 -127 37t-127 11q-108 0 -203 -45.5t-166.5 -131t-113 -208.5t-41.5 -278z" />
<glyph unicode="&#x153;" horiz-adv-x="1806" d="M86 487q0 121 34.5 225.5t98 181t152.5 120t198 43.5q125 0 216.5 -55.5t157.5 -161.5h2q28 46 66.5 85.5t86.5 68.5t103.5 46t117.5 17q85 0 156.5 -28t123 -85t80.5 -142.5t29 -199.5l-668 -12q0 -118 17 -213.5t55 -163t98.5 -104.5t147.5 -37q48 0 94.5 13t88.5 35.5 t77.5 54t60.5 67.5l51 -41q-42 -64 -93.5 -108.5t-107 -72.5t-112 -40.5t-108.5 -12.5q-60 0 -116.5 13.5t-105.5 39.5t-89 65.5t-68 90.5h-2q-60 -97 -150.5 -153t-208.5 -56q-107 0 -196 38.5t-153 107.5t-99 164.5t-35 209.5zM295 547q0 -95 15.5 -185t50 -159.5 t89.5 -111.5t133 -42q84 0 136.5 41.5t81.5 107.5t39 147.5t10 162.5q0 74 -19 170.5t-52.5 160.5t-84.5 102t-123 38q-77 0 -129.5 -36t-85 -96t-47 -138t-14.5 -162zM1046 676h469q-1 58 -11.5 112t-34.5 95.5t-64 67.5t-96 26q-112 0 -176 -74.5t-87 -226.5z" />
<glyph unicode="&#x178;" horiz-adv-x="1298" d="M-12 1343v91h528v-68q-71 0 -108 -16.5t-47.5 -46t3 -70.5t44.5 -90q38 -61 72 -115.5t68 -107.5t70.5 -108t80.5 -116h4q229 436 273 516t58 101t29 37l-162 -7v91h418v-68q-51 -3 -91 -20t-75 -49.5t-67.5 -81t-326.5 -601.5q-1 -99 -1.5 -234.5t0.5 -135.5 q0 -110 -6 -162l170 8v-90h-481v68q57 2 86 22t41 53.5t12 78.5v97l1 234l-355 563q-53 82 -78 137.5t-33 94.5zM358 1718q0 27 9 51t25 42t36 28.5t43 10.5t43 -10.5t35 -28.5t23.5 -42t8.5 -51t-9 -50.5t-24.5 -41t-36 -27.5t-42.5 -10q-23 0 -43 10t-35 27.5t-24 41 t-9 50.5zM726 1718q0 27 9 51t25 42t36 28.5t43 10.5t43 -10.5t35 -28.5t23.5 -42t8.5 -51t-9 -50.5t-24.5 -41t-36 -27.5t-42.5 -10q-23 0 -43 10t-35 27.5t-24 41t-9 50.5z" />
<glyph unicode="&#x2c6;" horiz-adv-x="819" d="M92 1268l326 325h4l305 -333l-55 -66l-260 223h-4l-265 -209z" />
<glyph unicode="&#x2dc;" horiz-adv-x="831" d="M72 1313q13 36 36.5 67.5t52.5 55.5t60 38t60 15q48 0 84 -17t66 -37.5t58 -37.5t62 -17q45 0 85 27t64 72l60 -31q-17 -51 -41.5 -87.5t-53 -60.5t-58 -35.5t-56.5 -11.5q-48 0 -85 17.5t-68.5 38t-59 38t-55.5 17.5q-38 0 -79.5 -20.5t-70.5 -65.5z" />
<glyph unicode="&#x2000;" horiz-adv-x="958" />
<glyph unicode="&#x2001;" horiz-adv-x="1917" />
<glyph unicode="&#x2002;" horiz-adv-x="958" />
<glyph unicode="&#x2003;" horiz-adv-x="1917" />
<glyph unicode="&#x2004;" horiz-adv-x="639" />
<glyph unicode="&#x2005;" horiz-adv-x="479" />
<glyph unicode="&#x2006;" horiz-adv-x="319" />
<glyph unicode="&#x2007;" horiz-adv-x="319" />
<glyph unicode="&#x2008;" horiz-adv-x="239" />
<glyph unicode="&#x2009;" horiz-adv-x="383" />
<glyph unicode="&#x200a;" horiz-adv-x="106" />
<glyph unicode="&#x2010;" horiz-adv-x="1001" d="M137 584v143h727v-135z" />
<glyph unicode="&#x2011;" horiz-adv-x="1001" d="M137 584v143h727v-135z" />
<glyph unicode="&#x2012;" horiz-adv-x="1001" d="M137 584v143h727v-135z" />
<glyph unicode="&#x2013;" horiz-adv-x="1208" d="M135 584v143h932v-135z" />
<glyph unicode="&#x2014;" horiz-adv-x="1434" d="M135 584v143h1157v-135z" />
<glyph unicode="&#x2018;" horiz-adv-x="459" d="M94 1168q0 39 11 91.5t31 106.5t48 104.5t62 84.5l55 -41q-17 -21 -36 -57t-33.5 -80t-22.5 -92.5t-2 -95.5q29 13 55.5 11t46.5 -15t31.5 -35t11.5 -49q0 -57 -33 -88t-80 -31q-35 0 -62 14.5t-45.5 39.5t-28 59t-9.5 73z" />
<glyph unicode="&#x2019;" horiz-adv-x="356" d="M51 1438q0 57 33 88t80 31q35 0 62 -14.5t45.5 -39.5t28 -59t9.5 -73t-11 -91.5t-31 -106.5t-48 -104.5t-62 -84.5l-55 41q17 21 36 57t33.5 80t22.5 92.5t2 95.5q-29 -13 -55.5 -11t-46.5 15t-31.5 35t-11.5 49z" />
<glyph unicode="&#x201a;" horiz-adv-x="518" d="M135 88q0 57 33 88t80 31q35 0 62 -14.5t45.5 -39.5t28 -59t9.5 -73t-11 -91.5t-31 -106.5t-48 -104.5t-62 -84.5l-55 41q17 21 36 57t33.5 80t22.5 92.5t2 95.5q-29 -13 -55.5 -11t-46.5 15t-31.5 35t-11.5 49z" />
<glyph unicode="&#x201c;" horiz-adv-x="819" d="M94 1168q0 39 11 91.5t31 106.5t48 104.5t62 84.5l55 -41q-17 -21 -36 -57t-33.5 -80t-22.5 -92.5t-2 -95.5q29 13 55.5 11t46.5 -15t31.5 -35t11.5 -49q0 -57 -33 -88t-80 -31q-35 0 -62 14.5t-45.5 39.5t-28 59t-9.5 73zM455 1168q0 39 11 91.5t31 106.5t48 104.5 t62 84.5l55 -41q-17 -21 -36 -57t-33.5 -80t-22.5 -92.5t-2 -95.5q29 13 55.5 11t46.5 -15t31.5 -35t11.5 -49q0 -57 -33 -88t-80 -31q-35 0 -62 14.5t-45.5 39.5t-28 59t-9.5 73z" />
<glyph unicode="&#x201d;" horiz-adv-x="715" d="M51 1438q0 57 33 88t80 31q35 0 62 -14.5t45.5 -39.5t28 -59t9.5 -73t-11 -91.5t-31 -106.5t-48 -104.5t-62 -84.5l-55 41q17 21 36 57t33.5 80t22.5 92.5t2 95.5q-29 -13 -55.5 -11t-46.5 15t-31.5 35t-11.5 49zM411 1438q0 57 33 88t80 31q35 0 62 -14.5t45.5 -39.5 t28 -59t9.5 -73t-11 -91.5t-31 -106.5t-48 -104.5t-62 -84.5l-55 41q17 21 36 57t33.5 80t22.5 92.5t2 95.5q-29 -13 -55.5 -11t-46.5 15t-31.5 35t-11.5 49z" />
<glyph unicode="&#x201e;" horiz-adv-x="879" d="M135 88q0 57 33 88t80 31q35 0 62 -14.5t45.5 -39.5t28 -59t9.5 -73t-11 -91.5t-31 -106.5t-48 -104.5t-62 -84.5l-55 41q17 21 36 57t33.5 80t22.5 92.5t2 95.5q-29 -13 -55.5 -11t-46.5 15t-31.5 35t-11.5 49zM495 88q0 57 33 88t80 31q35 0 62 -14.5t45.5 -39.5 t28 -59t9.5 -73t-11 -91.5t-31 -106.5t-48 -104.5t-62 -84.5l-55 41q17 21 36 57t33.5 80t22.5 92.5t2 95.5q-29 -13 -55.5 -11t-46.5 15t-31.5 35t-11.5 49z" />
<glyph unicode="&#x2022;" horiz-adv-x="821" d="M102 766q0 64 24 119t65.5 96t97.5 64.5t120 23.5q65 0 121 -23.5t97.5 -64.5t66.5 -96t25 -119t-24.5 -119t-66.5 -96t-98.5 -64.5t-120.5 -23.5t-120 23.5t-97.5 64.5t-65.5 96t-24 119z" />
<glyph unicode="&#x2026;" horiz-adv-x="1610" d="M131 98q0 28 10 52.5t26.5 42.5t38.5 28.5t46 10.5q25 0 46.5 -10.5t37.5 -28.5t25 -42.5t9 -52.5q0 -27 -10 -51t-26.5 -42t-38 -28t-45.5 -10t-45.5 10t-38 28t-26 42t-9.5 51zM684 98q0 28 10 52.5t26.5 42.5t38.5 28.5t46 10.5q25 0 46.5 -10.5t37.5 -28.5t25 -42.5 t9 -52.5q0 -27 -10 -51t-26.5 -42t-38 -28t-45.5 -10t-45.5 10t-38 28t-26 42t-9.5 51zM1237 98q0 28 10 52.5t26.5 42.5t38.5 28.5t46 10.5q25 0 46.5 -10.5t37.5 -28.5t25 -42.5t9 -52.5q0 -27 -10 -51t-26.5 -42t-38 -28t-45.5 -10t-45.5 10t-38 28t-26 42t-9.5 51z" />
<glyph unicode="&#x202f;" horiz-adv-x="383" />
<glyph unicode="&#x2039;" horiz-adv-x="784" d="M64 561l561 -575l64 65l-404 518v4l400 486l-66 65l-555 -555v-8z" />
<glyph unicode="&#x203a;" horiz-adv-x="784" d="M94 51l404 518v4l-400 486l66 65l555 -555v-8l-561 -575z" />
<glyph unicode="&#x205f;" horiz-adv-x="479" />
<glyph unicode="&#x20ac;" horiz-adv-x="1556" d="M72 508l29 123l159 -1q-3 40 -3 81q0 48 6 96h-191l29 123l185 -1q28 109 83 207t135.5 171.5t186 116.5t235.5 43q110 0 201 -30t179 -88l3 101h111l-41 -414h-74q-11 73 -36.5 136t-69 109.5t-107.5 73t-152 26.5q-84 0 -160 -30t-138.5 -87.5t-108.5 -141.5t-69 -193 l689 -3l-55 -115l-650 -3q-3 -41 -3 -85q0 -24 1 -47.5t3 -46.5l565 -2l-57 -115l-487 -2q24 -99 70.5 -178.5t110.5 -135.5t143.5 -86t170.5 -30q135 0 251.5 56t201.5 171l53 -43q-66 -91 -138 -149t-144.5 -91t-143 -45t-133.5 -12q-130 0 -237 40.5t-188 112.5 t-135 171.5t-78 217.5z" />
<glyph unicode="&#x2122;" horiz-adv-x="2187" d="M129 1163l7 271h743l8 -271h-61q-2 50 -9.5 87t-24.5 61t-46 35.5t-74 11.5l-90 -1v-583v-36v-25.5t-2 -22.5l94 4v-73h-334v57q29 0 47.5 9.5t29 26.5t14.5 40t4 51v551l-131 -1q-63 -1 -88 -49.5t-25 -142.5h-62zM922 625v57q31 1 50 11.5t30 29t15.5 44.5t6.5 58 q6 124 10 210.5t6.5 145t3.5 92t1.5 51t1 24t1.5 9.5l-87 -5v82h264l182 -439q21 -51 43 -106t49 -115h2q38 87 71 167.5t65.5 160t65.5 161.5t68 171h241v-68q-26 -1 -43 -9.5t-27 -23t-13.5 -35t-3.5 -45.5q0 -8 16 -242.5t17 -251.5t0 -34v-35l101 4v-71h-338v57h12 q48 5 65.5 37.5t17.5 84.5q0 6 -0.5 12.5t-27.5 434.5h-2l-260 -637h-96q-38 85 -80 178t-81 184t-73 173.5t-55 145.5h-2q0 -18 -0.5 -36.5t-1.5 -35.5l-16 -447q-2 -26 -4 -47.5t-7 -38.5l101 6v-69h-289z" />
<glyph unicode="&#x25fc;" horiz-adv-x="1025" d="M0 0v1025h1025v-1025h-1025z" />
<glyph unicode="&#xfb01;" horiz-adv-x="1276" d="M51 932v92h99h69v4q0 119 29 216.5t93 166.5t165.5 107t247.5 38q69 0 129 -13t105 -37t70.5 -57t25.5 -73q0 -41 -22.5 -69t-65.5 -28q-26 0 -43.5 9t-28.5 22t-16 28.5t-5 28.5t2.5 27t8.5 28q-36 26 -85.5 41.5t-115.5 15.5q-70 0 -128 -23t-100 -70.5t-65.5 -118.5 t-23.5 -167v-76h468q70 0 111 7t49 13h60v-827q0 -41 -1 -72.5t-8 -66.5l129 6v-84h-417v61q46 0 71 18.5t36 51.5t12.5 79t1.5 101v508q0 32 1.5 62t6.5 71l-520 -11l2 -726q0 -41 -1 -71.5t-8 -65.5l129 6v-84h-415v61q47 0 71.5 18.5t35.5 51.5t12 79t1 101l-4 621h-168z " />
<glyph unicode="&#xfb02;" horiz-adv-x="1305" d="M51 932v92h168v63q0 115 27.5 203t77 147t119 89t153.5 30q60 0 107.5 -6.5t88 -15t75 -15t67.5 -6.5q29 0 58 7.5t61 25.5h59v-1329v-50q0 -23 -1 -44.5t-5 -44.5l129 6v-84h-418v61q46 0 71 18.5t36 51.5t12.5 79t1.5 101v1086q-33 20 -73.5 34t-81.5 22.5t-79.5 12.5 t-66.5 4q-70 0 -116.5 -19.5t-74 -56.5t-39 -91t-11.5 -123v-156h276v-81l-276 -4l2 -722q0 -41 -1 -72.5t-8 -66.5l129 6v-84h-417v61q46 0 71 18.5t35.5 51.5t12 79t1.5 101l-2 624z" />
</font>
</defs>
</svg>
