<?xml version="1.0" standalone="no"?>
<!DOCTYPE svg PUBLIC "-//W3C//DTD SVG 1.1//EN" "http://www.w3.org/Graphics/SVG/1.1/DTD/svg11.dtd" >
<svg xmlns="http://www.w3.org/2000/svg">
<metadata></metadata>
<defs>
<font id="accanthis_adf_std_no2italic" horiz-adv-x="499" >
<font-face units-per-em="1000" ascent="750" descent="-250" />
<missing-glyph horiz-adv-x="325" />
<glyph unicode="AE" horiz-adv-x="854" d="M585 662q0 8 -8.5 10.5t-34.5 2.5q-7 0 -11 -4l-179 -301h156l75 280q2 10 2 12zM534 25q77 0 134 11t85 26.5t45.5 31.5t29.5 27t23 11q16 0 21 -18l-87 -114h-426q-9 12 7 25h34q17 3 22 25l76 281h-168l-176 -281q-6 -9 -6 -15q0 -10 20 -10h30q4 -6 1.5 -13.5 t-8.5 -11.5h-175q-3 6 -3 10q0 7 10 15h9q32 0 47 25l399 650h475l25 -114q-14 -18 -30 -18q-11 0 -17 11t-14.5 27t-26.5 31.5t-64.5 26.5t-117.5 11h-16q-27 0 -34 -25l-75 -280h147q26 0 33 31l10 37q6 5 15 5q7 0 10 -5l-47 -175l-13 -5q-4 1 -12 5l11 38q2 10 2 14 q0 16 -19 16h-147l-76 -281q-2 -8 -2 -11q0 -14 22 -14h17z" />
<glyph unicode="ae" horiz-adv-x="706" d="M454 232q30 0 68 6.5t79.5 20.5t69.5 41.5t28 63.5q0 29 -25.5 44.5t-61.5 15.5q-56 0 -99 -60t-56 -122zM367 235q-82 -1 -154 -46.5t-72 -113.5q0 -28 18 -44t49 -16q28 0 70 22t49 48zM149 358q0 35 63.5 63.5t108.5 28.5q140 0 140 -64q0 -8 -1 -12q79 76 175 76 q55 0 100.5 -23.5t45.5 -69.5q0 -38 -30 -67.5t-70.5 -44.5t-91.5 -24.5t-84 -12t-57 -2.5q-9 -36 -9 -73q0 -117 98 -117q32 0 69.5 16.5t62.5 41.5l17 -20q-73 -64 -175 -64q-52 0 -86.5 10.5t-46 19.5t-40.5 37q-50 -67 -153 -67q-51 0 -87.5 21.5t-36.5 63.5q0 45 35 81 t86.5 55t101 29t87.5 10l13 50q8 29 8 55q0 69 -62 69q-34 0 -66 -22t-56 -44t-37 -22q-10 0 -16 6.5t-6 15.5z" />
<glyph unicode="OE" horiz-adv-x="937" d="M517 684q-47 0 -100 -34.5t-98 -92.5t-74.5 -143t-29.5 -177q0 -63 16 -110.5t57 -79.5t105 -32q55 0 114 41l153 570q-50 58 -143 58zM617 25q77 0 134 11t85 26.5t45.5 31.5t29.5 27t23 11q16 0 21 -18l-87 -114h-426v1q-44 -11 -86 -11q-115 0 -177 72.5t-62 183.5 q0 109 57.5 215.5t159 177.5t215.5 71q46 0 82 -10h405l25 -114q-14 -18 -30 -18q-11 0 -17 11t-14.5 27t-26.5 31.5t-64.5 26.5t-117.5 11h-16q-27 0 -34 -25l-75 -280h147q26 2 33 30l10 38q6 5 15 5q7 0 10 -5l-47 -175q-6 -7 -13 -6q-8 0 -12 6l11 39q1 3 1 10 q0 19 -18 19h-147l-76 -281q-2 -8 -2 -11q0 -14 22 -14h17z" />
<glyph unicode="oe" horiz-adv-x="771" d="M258 16q42 0 77.5 33t56 82t31.5 97.5t11 86.5q0 109 -101 109q-48 0 -89.5 -48.5t-63 -115.5t-21.5 -128q0 -116 99 -116zM506 232q29 0 67.5 6.5t81 20.5t71.5 41.5t29 63.5q0 29 -25.5 44.5t-61.5 15.5q-99 0 -162 -192zM836 357q0 -47 -42 -80t-105.5 -47t-108 -19 t-77.5 -5q-9 -34 -9 -70q0 -53 24 -86.5t75 -33.5q32 0 69.5 16.5t62.5 41.5l17 -20q-73 -64 -175 -64q-105 0 -138 100q-38 -46 -91 -73t-106 -27q-74 0 -115.5 46.5t-41.5 117.5q0 69 37.5 137t103.5 113.5t140 45.5q52 0 90 -26.5t53 -72.5q86 99 192 99q54 0 99.5 -24 t45.5 -69z" />
<glyph unicode="ffj" horiz-adv-x="738" d="M26 -204v4q-63 -50 -116 -50q-128 0 -128 47q0 16 12.5 29.5t31.5 13.5q16 0 50.5 -32.5t55.5 -32.5q95 0 154 225l114 425h-54l25 25h36l2 10q23 84 116.5 167t179.5 83q83 0 83 -43q0 -1 -0.5 -3.5t-0.5 -3.5q95 90 172 90q72 0 72 -40q0 -15 -10 -25t-18.5 -12 t-14.5 -2q-17 0 -26.5 14.5t-33.5 14.5q-63 0 -111.5 -43t-65.5 -107l-26 -100h251q-15 -20 -24 -50l-119 -446q-16 -58 -96 -131t-139 -73q-127 0 -127 47v4q-63 -51 -118 -51q-127 0 -127 46zM544 631q-12 0 -18.5 4.5t-9 10t-13 10t-29.5 4.5q-29 0 -53 -6.5t-40 -14 t-31 -25.5t-22.5 -28.5t-17 -37t-12.5 -38t-11 -41.5q-3 -13 -5 -19h168l2 10q23 82 110 176q-9 -5 -18 -5zM275 425l-114 -425q-11 -39 -34 -79t-41 -61l-17 -20q16 0 50.5 -32.5t55.5 -32.5q95 0 154 225l114 425h-168zM518 425l-114 -425q-23 -84 -94 -161q2 1 4 1 q16 0 50.5 -32.5t55.5 -32.5q92 0 141 193l103 382q5 18 5 28q0 47 -82 47h-69z" />
<glyph unicode="fj" horiz-adv-x="505" d="M29 -203v4q-65 -51 -119 -51q-128 0 -128 47q0 16 12.5 29.5t31.5 13.5q16 0 50.5 -32.5t55.5 -32.5q95 0 154 225l114 425h-54l25 25h36l2 10q24 88 123.5 189t183.5 101q72 0 72 -40q0 -15 -10 -25t-18.5 -12t-14.5 -2q-17 0 -26.5 14.5t-33.5 14.5q-63 0 -111.5 -43 t-65.5 -107l-26 -100h251q-15 -20 -24 -50l-119 -446q-16 -58 -96 -131t-139 -73q-126 0 -126 47zM275 425l-114 -425q-23 -84 -94 -161q2 1 4 1q16 0 50.5 -32.5t55.5 -32.5q92 0 141 193l103 382q4 20 4 26q0 49 -81 49h-69z" />
<glyph unicode="ft" horiz-adv-x="587" d="M272 415l-111 -415q-13 -49 -51 -106t-93.5 -100.5t-106.5 -43.5q-128 0 -128 47q0 16 12.5 29.5t31.5 13.5q16 0 50.5 -32.5t55.5 -32.5q95 0 154 225l111 415h-54l25 25h36l3 10q14 55 64.5 124.5t119.5 122.5t125 53q72 0 72 -40q0 -15 -10 -25t-18.5 -12t-14.5 -2 q-17 0 -26.5 14.5t-33.5 14.5q-40 0 -72 -16t-52 -40t-35.5 -57.5t-24.5 -64t-18 -65.5q-3 -11 -4 -17h131q21 0 45.5 24t42.5 53t39.5 55t36.5 28q-13 -14 -24 -50l-29 -110h82l-25 -25h-64l-68 -255q-16 -57 -16 -87q0 -57 51 -57q37 0 89 58l18 -16q-34 -36 -64 -52 t-69 -16q-98 0 -98 94q0 23 8 55l74 276h-167z" />
<glyph unicode="ff" horiz-adv-x="524" d="M587 660q34 34 74 58q53 32 99 32q72 0 72 -40q0 -15 -10 -25t-18.5 -12t-14.5 -2q-17 0 -26.5 14.5t-33.5 14.5q-40 0 -72 -16t-52 -40t-35.5 -57.5t-24.5 -64t-18 -65.5l-1.5 -6t-1 -5t-1.5 -6h82l-25 -25h-64l-111 -415q-13 -49 -50.5 -106t-93 -100.5t-106.5 -43.5 q-126 0 -126 47v4q-65 -51 -119 -51q-128 0 -128 47q0 16 12.5 29.5t31.5 13.5q16 0 50.5 -32.5t55.5 -32.5q95 0 154 225l111 415h-54l25 25h36l3 10q22 84 119.5 172t183.5 88q78 0 78 -41q0 -6 -1 -9zM544 631q-17 0 -27 14.5t-38 14.5q-41 0 -72.5 -12.5t-51 -32 t-34 -49t-23 -56t-17.5 -61.5q-1 -6 -2 -9h169l3 10q10 39 42.5 91.5t73.5 95.5q-12 -6 -23 -6zM272 415l-111 -415q-23 -84 -94 -161q2 1 4 1q16 0 50.5 -32.5t55.5 -32.5q94 0 153 225l111 415h-169z" />
<glyph unicode="fi" horiz-adv-x="480" d="M545 671q-17 0 -26.5 14.5t-33.5 14.5q-63 0 -111.5 -43t-65.5 -107l-29 -110h251q-16 -24 -24 -50l-87 -325q-3 -18 -3 -20q0 -21 15 -21q11 0 32 16q-12 -23 -36 -36.5t-48 -13.5q-19 0 -31 9.5t-12 25.5q0 5 2 15l80 300q3 12 3 22q0 53 -85 53h-64l-111 -415 q-13 -49 -51 -106t-93.5 -100.5t-106.5 -43.5q-128 0 -128 47q0 16 12.5 29.5t31.5 13.5q16 0 50.5 -32.5t55.5 -32.5q95 0 154 225l111 415h-54l25 25h36l3 10q14 55 64.5 124.5t119.5 122.5t125 53q72 0 72 -40q0 -15 -10 -25t-18.5 -12t-14.5 -2z" />
<glyph unicode="fl" horiz-adv-x="484" d="M-218 -203q0 16 12.5 29.5t31.5 13.5q16 0 50.5 -32.5t55.5 -32.5q95 0 154 225l111 415h-54l25 25h36l3 10q14 55 64.5 124.5t119.5 122.5t125 53q35 0 55 -10q16 10 42 10q-17 -25 -23 -50l-171 -635q-3 -18 -3 -20q0 -21 15 -21q11 0 32 16q-12 -23 -36 -36.5 t-48 -13.5q-19 0 -31 9.5t-12 25.5q0 5 2 15l167 623q3 11 3 19q0 18 -26 18q-61 0 -109 -44t-65 -106l-29 -110h82l-25 -25h-64l-111 -415q-13 -49 -51 -106t-93.5 -100.5t-106.5 -43.5q-128 0 -128 47z" />
<glyph unicode="ffi" horiz-adv-x="718" d="M26 -204v4q-63 -50 -116 -50q-128 0 -128 47q0 16 12.5 29.5t31.5 13.5q16 0 50.5 -32.5t55.5 -32.5q95 0 154 225l111 415h-54l25 25h36l3 10q22 85 117.5 172.5t180.5 87.5q83 0 83 -43q0 -1 -0.5 -3.5t-0.5 -3.5q95 90 172 90q72 0 72 -40q0 -15 -10 -25t-18.5 -12 t-14.5 -2q-17 0 -26.5 14.5t-33.5 14.5q-63 0 -111.5 -43t-65.5 -107l-29 -110h251q-17 -25 -23 -50l-88 -325q-3 -18 -3 -20q0 -21 15 -21q11 0 32 16q-12 -23 -36 -36.5t-48 -13.5q-19 0 -31 9.5t-12 25.5q0 5 2 15l80 300q3 12 3 22q0 53 -85 53h-64l-111 -415 q-13 -49 -51 -106t-93.5 -100.5t-106.5 -43.5q-127 0 -127 46zM544 631q-12 0 -18.5 4.5t-9 10t-13 10t-29.5 4.5q-49 0 -83 -15t-55.5 -52t-29.5 -59.5t-22 -75.5q-3 -12 -5 -18h168l3 10q10 39 41 91t71 95q-9 -5 -18 -5zM272 415l-111 -415q-11 -39 -34 -79t-41 -61 l-17 -20q16 0 50.5 -32.5t55.5 -32.5q95 0 154 225l111 415h-168z" />
<glyph unicode="ffl" horiz-adv-x="718" d="M544 631q-17 0 -27 14.5t-38 14.5q-41 0 -72.5 -12.5t-51 -32t-34 -49t-23 -56t-17.5 -61.5q-1 -6 -2 -9h169l5 20q23 85 113 178q-16 -7 -22 -7zM272 415l-111 -415q-23 -83 -94 -160h3q16 0 50.5 -32.5t55.5 -32.5q95 0 154 225l111 415h-169zM-218 -203 q0 16 12.5 29.5t31.5 13.5q16 0 50.5 -32.5t55.5 -32.5q95 0 154 225l111 415h-54l25 25h36l5 20q23 84 119 167t182 83q77 0 77 -41q0 -7 -1 -11q97 92 174 92q35 0 55 -10q16 10 42 10q-17 -25 -23 -50l-171 -635q-3 -18 -3 -20q0 -21 15 -21q11 0 32 16 q-12 -23 -36 -36.5t-48 -13.5q-19 0 -31 9.5t-12 25.5q0 5 2 15l167 623q3 11 3 19q0 18 -26 18q-61 0 -109 -44t-65 -106l-29 -110h82l-25 -25h-64l-111 -415q-13 -49 -51 -106t-93.5 -100.5t-106.5 -43.5q-127 0 -127 47v4q-63 -51 -117 -51q-128 0 -128 47z" />
<glyph unicode=" "  horiz-adv-x="325" />
<glyph unicode="&#x09;" horiz-adv-x="325" />
<glyph unicode="&#xa0;" horiz-adv-x="325" />
<glyph unicode="!" horiz-adv-x="245" d="M182 52q0 -25 -22.5 -43.5t-44.5 -18.5q-17 0 -27.5 10t-10.5 26q0 25 20.5 45t44.5 20q18 0 29 -11t11 -28zM346 659l-188 -509l87 509q3 20 23 35.5t40 15.5q17 0 28.5 -11t11.5 -27q0 -8 -2 -13z" />
<glyph unicode="&#x22;" horiz-adv-x="398" d="M325 735l-87 -241h-26l41 242q18 14 40 14q21 0 32 -15zM486 735l-87 -241h-26l41 242q18 14 40 14t32 -15z" />
<glyph unicode="#" horiz-adv-x="478" d="M409 360h-118l-50 -119h119zM554 360h-94l-48 -119h89l-14 -49h-97l-79 -192h-52l79 192h-119l-81 -192h-51l80 192h-95l14 49h103l50 119h-98l14 49h105l76 180h51l-75 -180h118l75 180h51l-74 -180h86z" />
<glyph unicode="$" horiz-adv-x="532" d="M299 25q78 17 121.5 63.5t43.5 98.5q0 37 -25 60.5t-69 42.5zM416 681q-58 -15 -102.5 -66t-44.5 -102q0 -60 76 -98zM651 618q0 -15 -11 -25.5t-24 -10.5t-26 13.5t-24.5 30t-36 33.5t-55.5 22l-77 -288q42 -17 61 -25.5t48.5 -27.5t42 -43t12.5 -56q0 -19 -5 -43 t-22.5 -58.5t-45.5 -63.5t-79.5 -53t-118.5 -31l-14 -52h-58l13 50q-21 2 -50 10.5t-58.5 22.5t-50 35t-20.5 44q0 18 12.5 30.5t28.5 12.5t26.5 -20.5t18 -44.5t30.5 -44.5t60 -20.5l10 1l80 296q-32 13 -53.5 23.5t-44.5 28t-34.5 40.5t-11.5 52q0 14 4.5 36.5t20.5 58 t41 66t73 56.5t110 34l12 43h58l-11 -40q46 -3 107.5 -29.5t61.5 -62.5z" />
<glyph unicode="%" horiz-adv-x="825" d="M296 328q58 0 104 87t46 175q0 98 -83 98q-53 0 -100.5 -81.5t-47.5 -173.5q0 -105 81 -105zM749 710q-293 -464 -432 -720h-68q267 402 433 720h67zM650 10q58 0 104 87t46 175q0 98 -83 98q-53 0 -100.5 -81t-47.5 -174q0 -105 81 -105zM504 577q0 -60 -28 -121 t-82 -104.5t-119 -43.5q-60 0 -90.5 37.5t-30.5 96.5q0 97 67.5 182.5t160.5 85.5q61 0 91.5 -37t30.5 -96zM858 259q0 -59 -28 -120.5t-82.5 -105t-119.5 -43.5q-60 0 -90 37t-30 96q0 98 67.5 183.5t160.5 85.5q61 0 91.5 -37t30.5 -96z" />
<glyph unicode="&#x26;" horiz-adv-x="732" d="M55 102q0 24 7 47t19.5 42.5t27.5 37.5t34 33.5t35.5 27.5t35.5 23t30.5 17t24.5 12l13 7q-7 61 -7 70q0 79 60.5 130t146.5 51h3q15 0 31.5 -1.5t38.5 -5.5t36.5 -13.5t14.5 -23.5q0 -15 -14.5 -29.5t-27.5 -14.5q-17 0 -49 31t-53 31q-42 0 -75.5 -29.5t-33.5 -99.5 q0 -16 4 -29.5t8 -21t13.5 -16t13.5 -11t16 -8.5l14 -7q-28 0 -74 -14.5t-96 -40.5t-86 -72t-36 -99q0 -87 117 -87q37 0 74.5 10t80 33.5t84 70.5t75.5 113q-42 20 -63 20q-23 0 -42 -8.5t-57 -35.5q8 9 29 37.5t35 39.5t31 11q31 0 74.5 -22t66.5 -22q4 -1 13 -1 q37 0 90 45q-2 -4 -14 -23.5t-17.5 -25.5t-17 -18.5t-24.5 -16.5t-30 -4q-22 0 -48 11q-57 -113 -155 -188t-210 -75h-4q-74 0 -118.5 30t-44.5 82z" />
<glyph unicode="'" horiz-adv-x="177" d="M325 735l-88 -241h-26l42 242q18 14 40 14q21 0 32 -15z" />
<glyph unicode="(" horiz-adv-x="229" d="M397 710q-133 -219 -183.5 -358.5t-50.5 -307.5q0 -83 11 -169h-40q-36 150 -36 254q0 73 14 136t51 136.5t77.5 136.5t116.5 172h40z" />
<glyph unicode=")" horiz-adv-x="230" d="M280 438q0 -54 -5.5 -93t-27.5 -107.5t-76.5 -158.5t-142.5 -204h-40q97 147 150 273.5t67 210.5t14 188q0 55 -8 163h40q29 -181 29 -272z" />
<glyph unicode="*" horiz-adv-x="339" d="M458 633q0 -48 -74 -48h-1h-4q-16 0 -40 -15q8 -8 50.5 -18.5t42.5 -29.5q0 -15 -13 -25.5t-26 -10.5q-15 0 -24.5 8.5t-12.5 18.5t-10.5 21t-19.5 15q-7 -21 -7 -31q0 -6 1 -16t1 -16q0 -10 -2 -20t-12 -21.5t-26 -11.5q-24 0 -24 19q0 23 21 51t21 47q-23 -4 -50.5 -33 t-51.5 -29q-20 0 -20 19q0 22 20 32.5t51.5 16.5t42.5 13q-13 16 -33 16h-19q-14 0 -25 8t-11 21q0 12 11.5 24t23.5 12q19 0 38.5 -28t34.5 -34q7 18 7 26q0 7 -3.5 19.5t-3.5 20.5q0 15 10.5 35.5t33.5 20.5q21 0 21 -22t-19.5 -53t-19.5 -47q21 5 51 34.5t55 29.5 q15 0 15 -19z" />
<glyph unicode="+" horiz-adv-x="471" d="M511 191h-190v-191h-58v191h-190v57h190v192h58v-192h190v-57z" />
<glyph unicode="," horiz-adv-x="214" d="M48 24q0 25 20.5 46t45.5 21q50 0 50 -61q0 -37 -18 -74t-37.5 -60.5t-52.5 -49t-42 -30.5l-27 -15l-1 -1q107 99 107 155q0 20 -22.5 35.5t-22.5 33.5z" />
<glyph unicode="-" horiz-adv-x="438" d="M420 191h-300l15 57h300z" />
<glyph unicode="." horiz-adv-x="228" d="M182 62q0 -28 -22.5 -50.5t-52.5 -22.5q-20 0 -32.5 12t-12.5 31q0 29 25 50.5t51 21.5q20 0 32 -12t12 -30z" />
<glyph unicode="/" horiz-adv-x="291" d="M510 710q-301 -478 -432 -720h-68q259 389 433 720h67z" />
<glyph unicode="0" horiz-adv-x="631" d="M124 195q0 93 44.5 185.5t127.5 156t179 63.5q93 0 140.5 -57.5t47.5 -147.5q0 -66 -26 -136.5t-70.5 -130.5t-112 -99t-143.5 -39q-93 0 -140 57.5t-47 147.5zM342 10q67 0 124.5 70.5t87.5 165t30 177.5q0 155 -136 155q-57 0 -112.5 -58.5t-91 -152.5t-35.5 -190 q0 -167 133 -167z" />
<glyph unicode="1" horiz-adv-x="268" d="M173 0l-78 -10l132 491l-44 52l151 67z" />
<glyph unicode="2" horiz-adv-x="541" d="M264 30q67 3 113.5 14t66.5 25.5t31.5 29t20 24t21.5 9.5q16 0 21 -18l-87 -114h-414q19 65 74 121.5t119.5 97t126.5 80t103 87t41 101.5q0 42 -26.5 65t-73.5 23q-44 0 -75.5 -16t-47 -38.5t-26.5 -45.5t-23 -39t-28 -16q-27 0 -27 26q0 52 73.5 103t179.5 51 q67 0 112 -29.5t45 -85.5q0 -45 -23 -85.5t-60 -72.5t-82.5 -61.5t-92.5 -57.5t-87.5 -54.5t-70 -58.5t-37.5 -65h133z" />
<glyph unicode="3" horiz-adv-x="479" d="M154 447q0 18 13.5 42t39.5 50t74 43.5t107 17.5q58 0 93.5 -30.5t35.5 -82.5q0 -60 -42.5 -115t-85.5 -76q71 -34 71 -111q0 -101 -91 -198t-212 -97q-41 0 -92 19t-51 52q0 18 16 31.5t29 13.5q15 0 23.5 -14t13.5 -31t26.5 -31t59.5 -14q56 0 101 44t65 97t20 97 q0 42 -21 69.5t-64 27.5q-37 0 -76 -22l22 58q73 2 128 35.5t80 76t25 84.5q0 41 -27.5 66.5t-72.5 25.5q-40 0 -67.5 -16t-40.5 -38.5t-22 -45.5t-21 -39t-30 -16q-27 0 -27 27z" />
<glyph unicode="4" horiz-adv-x="453" d="M442 85h-106l-50 -185l-77 -10l52 195h-220l8 29q7 24 94.5 125.5t178.5 210t104 150.5h48l-125 -465q47 0 112 21zM274 135l80 303q-19 -30 -78 -97.5t-105.5 -123t-46.5 -70.5q0 -12 20 -12h130z" />
<glyph unicode="5" horiz-adv-x="478" d="M307 548l-100 -217q49 18 99 18q80 0 120 -36t40 -103q0 -73 -36.5 -146t-105.5 -123.5t-151 -50.5q-40 0 -90.5 19t-50.5 52q0 17 15 31t28 14t22 -14t15.5 -31t25.5 -31t48 -14q46 0 85.5 35.5t63 87t37 102.5t13.5 88q0 45 -23 69.5t-79 24.5q-59 0 -114 -78l-48 5 l158 350h282q-24 -80 -48 -85q-7 0 -29 16.5t-51 16.5h-126z" />
<glyph unicode="6" horiz-adv-x="517" d="M283 16q42 0 77.5 33t56 82t31.5 97.5t11 86.5q0 109 -101 109q-48 0 -89.5 -48.5t-63 -115.5t-21.5 -128q0 -116 99 -116zM538 286q0 -107 -85 -201.5t-196 -94.5q-74 0 -115.5 46.5t-41.5 117.5q0 46 20 102.5t65.5 128t133.5 157t209 168.5l27 -26 q-173 -131 -261 -250q42 16 87 16q74 0 115.5 -46.5t41.5 -117.5z" />
<glyph unicode="7" horiz-adv-x="440" d="M102 -90q27 91 91 203t124.5 193.5t108 153t47.5 97.5q0 18 -25 18h-112q-43 0 -77.5 -19.5t-55 -38.5t-29.5 -19q-19 0 -26 27l68 75h360q-32 -42 -37 -50q-40 -67 -106 -160.5t-109.5 -156t-86 -155.5t-60.5 -188z" />
<glyph unicode="8" horiz-adv-x="514" d="M274 16q49 0 88.5 38t57 84.5t17.5 86.5q0 83 -86 119q-188 -73 -188 -213q0 -51 28.5 -83t82.5 -32zM342 414q17 6 35 14t43.5 23.5t44.5 33.5t32.5 44.5t13.5 55.5q0 42 -22 74t-60 32q-51 0 -97 -56.5t-46 -124.5q0 -64 56 -96zM574 595q0 -36 -16 -70t-37 -56 t-48.5 -42.5t-42.5 -28.5t-28 -14q51 -19 82 -54.5t31 -85.5q0 -38 -18.5 -81t-51 -82t-85 -65t-112.5 -26q-75 0 -116.5 39.5t-41.5 106.5q0 42 17.5 82t41 66.5t53 50t47 33.5t29.5 16q-26 18 -43.5 53.5t-17.5 73.5q0 71 66.5 135t162.5 64q60 0 94 -31t34 -84z" />
<glyph unicode="9" horiz-adv-x="517" d="M390 574q-55 0 -97.5 -56.5t-60.5 -123t-18 -120.5q0 -108 101 -108q48 0 89.5 48.5t63 115.5t21.5 128q0 116 -99 116zM135 306q0 105 84.5 199.5t196.5 94.5q74 0 115.5 -46.5t41.5 -117.5q0 -46 -18.5 -99.5t-62.5 -123t-132 -154t-212 -169.5l-28 26q73 55 101 77 t79 70t85 95q-49 -18 -92 -18q-75 0 -116.5 47t-41.5 119z" />
<glyph unicode=":" horiz-adv-x="214" d="M175 61q0 -26 -22.5 -48.5t-53.5 -22.5q-20 0 -32 11.5t-12 30.5q0 29 24 51t51 22q20 0 32.5 -12.5t12.5 -31.5zM267 408q0 -28 -22.5 -50.5t-52.5 -22.5q-20 0 -32.5 12t-12.5 30q0 25 22.5 49t53.5 24q20 0 32 -12t12 -30z" />
<glyph unicode=";" horiz-adv-x="214" d="M48 24q0 25 20.5 46t45.5 21q50 0 50 -61q0 -37 -18 -74t-37.5 -60.5t-52.5 -49t-42 -30.5l-27 -15l-1 -1q107 99 107 155q0 20 -22.5 35.5t-22.5 33.5zM267 408q0 -28 -22.5 -50.5t-52.5 -22.5q-20 0 -32.5 12t-12.5 30q0 25 22.5 49t53.5 24q20 0 32 -12t12 -30z" />
<glyph unicode="&#x3c;" horiz-adv-x="533" d="M518 -8l-442 199v57l441 200v-62l-365 -166l366 -167v-61z" />
<glyph unicode="=" horiz-adv-x="597" d="M574 283h-438v57h438v-57zM575 99h-439v57h439v-57z" />
<glyph unicode="&#x3e;" horiz-adv-x="533" d="M570 191l-442 -199v61l365 167l-365 166v62l442 -200v-57z" />
<glyph unicode="?" horiz-adv-x="366" d="M227 52q0 -25 -22.5 -43.5t-44.5 -18.5q-17 0 -27.5 10t-10.5 26q0 25 20.5 45t44.5 20q18 0 29 -11t11 -28zM200 657q0 23 41 38t92 15q61 0 95 -38.5t34 -97.5q0 -42 -12 -74.5t-31 -54t-46 -49.5t-54.5 -56t-59 -78t-56.5 -112q1 16 3 53.5t5.5 67.5t9.5 53 q4 14 24.5 32t46 38.5t51 47t43 65.5t17.5 85q0 40 -15 68t-47 28q-19 0 -62.5 -26t-58.5 -26q-8 0 -14 6.5t-6 14.5z" />
<glyph unicode="@" horiz-adv-x="693" d="M527 355q0 57 -38 57q-52 0 -87.5 -57.5t-35.5 -112.5q0 -30 13 -53t41 -23q44 0 75.5 69t31.5 120zM652 52q0 -9 -30 -23.5t-80 -26.5t-96 -12q-134 0 -229.5 84t-95.5 216t95.5 221t228.5 89q118 0 205.5 -72.5t87.5 -187.5q0 -76 -45.5 -144.5t-118.5 -68.5 q-31 0 -54 17.5t-27 47.5q-49 -64 -111 -64q-36 0 -57.5 30.5t-21.5 68.5q0 78 50 151.5t124 73.5q25 0 39 -11t26 -36l9 34h61q-2 -9 -19.5 -69.5t-29 -108t-11.5 -64.5q0 -41 35 -41q51 0 83 59.5t32 115.5q0 102 -77.5 173t-179.5 71q-108 0 -186.5 -88t-78.5 -198 q0 -116 80 -192.5t195 -76.5q44 0 86.5 11.5t68 23t28.5 11.5q14 0 14 -14z" />
<glyph unicode="A" horiz-adv-x="524" d="M505 25h20q2 -4 2 -7q0 -9 -9 -18h-175q-8 12 7 25h25q32 2 32 25v280h-141l-147 -280q-3 -5 -3 -9q0 -16 30 -16h24q9 -9 -7 -25h-153q-2 4 -2 9q0 9 9 16h23q20 0 33 25l344 650h64v-650q3 -25 24 -25zM286 370h124v240z" />
<glyph unicode="B" horiz-adv-x="590" d="M617 253q0 -95 -82 -174t-196 -79h-304q-3 2 -3 6q0 9 10 19q19 1 28.5 2t17.5 6.5t10 16.5l161 600q2 8 2 10q0 15 -35 15h-10q-2 2 -2 13q2 5 9 12h279q66 0 110 -28t44 -81q0 -17 -6.5 -41.5t-21.5 -54.5t-45 -56t-71 -36q48 -17 76.5 -57t28.5 -93zM346 25 q76 0 127.5 66t51.5 143q0 54 -24 95t-68 41h-174l-82 -308q-2 -14 -2 -18q0 -11 9 -15t34 -4h128zM414 412q63 1 107.5 60.5t44.5 108.5q0 40 -28.5 67t-69.5 27h-102q-14 0 -21 -5.5t-11 -19.5l-64 -238h144z" />
<glyph unicode="C" horiz-adv-x="605" d="M531 684q-48 0 -102.5 -32.5t-102 -88t-78.5 -140t-31 -177.5q0 -101 43.5 -166t138.5 -65q38 0 72 20.5t54 44.5t41.5 44.5t37.5 20.5q24 0 24 -23q0 -22 -37 -52.5t-101 -55t-128 -24.5q-115 0 -177 72.5t-62 183.5q0 109 57.5 215.5t159 177.5t215.5 71 q47 0 115 -26.5t68 -64.5q0 -16 -11 -26.5t-24 -10.5q-12 0 -23 10.5t-22 25.5t-26 30t-41 25.5t-60 10.5z" />
<glyph unicode="D" horiz-adv-x="661" d="M223 700h253q120 0 187.5 -68t67.5 -178q0 -105 -57 -209.5t-159.5 -174.5t-218.5 -70h-261l-2 12l9 13q33 1 42.5 5t13.5 20l161 600q2 10 2 11q0 9 -8.5 11t-36.5 3q-2 2 -2 13q4 9 9 12zM205 25h128q72 0 142 61.5t114.5 165t44.5 216.5q0 93 -43 149.5t-139 56.5h-33 q-52 0 -66.5 -3.5t-18.5 -20.5l-161 -600q-2 -8 -2 -11q0 -14 34 -14z" />
<glyph unicode="E" horiz-adv-x="522" d="M203 25q77 0 134 11t85 26.5t45.5 31.5t29.5 27t23 11q16 0 21 -18l-87 -114h-426q-2 2 -2 6v6q5 11 9 13q31 1 41.5 5t14.5 20l161 600q2 10 2 11q0 9 -8.5 11t-36.5 3q-2 6 -2 13q4 9 9 12h406l25 -114q-14 -18 -30 -18q-11 0 -17 11t-14.5 27t-26.5 31.5t-64.5 26.5 t-117.5 11h-16q-27 0 -34 -25l-75 -280h147q16 2 23 8.5t12 27.5l8 32q6 5 15 5q7 0 10 -5l-47 -175q-7 -5 -13 -5q-7 0 -12 5l10 36q3 14 3 20q0 12 -19 12h-147l-76 -281q-1 -4 -1 -11q0 -9 7.5 -11.5t30.5 -2.5z" />
<glyph unicode="F" horiz-adv-x="487" d="M617 568q-11 0 -17 11t-14.5 27t-26.5 31.5t-64.5 26.5t-117.5 11q-26 0 -36 -4.5t-14 -20.5l-75 -280h147q16 0 22 6t11 25l10 37q6 5 15 5q7 0 10 -5l-47 -175q-3 -5 -13 -5q-7 0 -12 5l11 38q3 11 3 17q0 13 -20 13h-147l-76 -281q-1 -3 -1 -9q0 -16 14 -16h31 q4 -6 1.5 -13.5t-8.5 -11.5h-175q-2 6 -2 9q0 9 9 16h29q22 1 27 25l161 600q2 8 2 11q0 14 -19 14h-26q-2 6 -2 13q5 9 9 12h406l25 -114q-14 -18 -30 -18z" />
<glyph unicode="G" horiz-adv-x="650" d="M525 684q-50 0 -105.5 -34t-102 -90.5t-77 -140.5t-30.5 -174q0 -101 43.5 -165.5t139.5 -64.5q30 0 67 13t65 33l68 251q2 10 2 12q0 12 -27 13h-19q-4 6 -1.5 13.5t8.5 11.5h175q2 -2 2 -8q0 -12 -9 -17h-22q-15 0 -20.5 -5t-10.5 -20l-63 -234q-114 -88 -252 -88 q-115 0 -177 72.5t-62 183.5q0 109 57.5 215.5t159 177.5t215.5 71q47 0 115 -26.5t68 -64.5q0 -16 -11 -26.5t-24 -10.5q-15 0 -29.5 16t-27 35t-43 35t-72.5 16z" />
<glyph unicode="H" horiz-adv-x="563" d="M725 693q0 -11 -9 -18q-50 0 -57 -25l-161 -600q-1 -2 -1 -7q0 -18 45 -18q4 -6 1.5 -13.5t-8.5 -11.5h-175q-4 7 -2 12.5t4.5 8.5t4.5 4q50 0 56 25l75 280h-257l-75 -280q-1 -2 -1 -7q0 -18 45 -18q4 -6 1.5 -13.5t-8.5 -11.5h-175q-2 6 -2 9q0 9 9 16q50 0 56 25 l161 600q1 3 1 8q0 17 -44 17q-8 12 7 25h175q8 -12 -7 -25q-50 0 -57 -25l-75 -280h257l75 280q1 3 1 8q0 17 -44 17q-8 12 7 25h175q2 -4 2 -7z" />
<glyph unicode="I" horiz-adv-x="231" d="M393 693q0 -11 -9 -18q-50 0 -57 -25l-161 -600q-1 -2 -1 -7q0 -18 45 -18q4 -6 1.5 -13.5t-8.5 -11.5h-175q-2 6 -2 9q0 9 9 16q50 0 56 25l161 600q1 3 1 8q0 17 -44 17q-8 12 7 25h175q2 -4 2 -7z" />
<glyph unicode="J" horiz-adv-x="526" d="M41 69q0 15 11 27.5t25 12.5q9 0 21 -14.5t24.5 -32.5t40 -32.5t64.5 -14.5q76 0 126.5 48.5t71.5 126.5l123 460q1 3 1 7q0 18 -44 18q-8 12 7 25h175q2 -4 2 -7q0 -11 -9 -18q-50 0 -57 -25l-119 -444q-27 -98 -117 -157t-191 -59q-44 0 -99.5 22t-55.5 57z" />
<glyph unicode="K" horiz-adv-x="548" d="M522 700h175q2 -4 2 -7q0 -11 -9 -18h-34l-328 -269l189 -381h25q4 -6 1.5 -13.5t-8.5 -11.5h-175q-2 6 -2 12q0 7 9 14h29q29 3 29 16q0 2 -2 8l-166 337l-91 -337q-1 -2 -1 -7q0 -18 45 -18q4 -6 1.5 -13.5t-8.5 -11.5h-175q-2 6 -2 9q0 9 9 16q50 0 56 25l161 600 q1 3 1 7q0 18 -44 18q-8 12 7 25h175q8 -12 -7 -25q-50 0 -57 -25l-65 -242l295 242q9 9 9 16q0 9 -21 9h-30q-2 3 -2 13q4 9 9 12z" />
<glyph unicode="L" horiz-adv-x="532" d="M203 25q77 0 134 11t85 26.5t45.5 31.5t29.5 27t23 11q16 0 21 -18l-87 -114h-426q-3 3 -3 7q0 11 10 18h7q25 0 35.5 6t13.5 19l161 600q1 3 1 7q0 18 -44 18q-8 12 7 25h175q8 -12 -7 -25q-50 0 -57 -25l-161 -600q-2 -8 -2 -11q0 -14 22 -14h17z" />
<glyph unicode="M" horiz-adv-x="613" d="M773 700q2 -2 2 -4t-0.5 -4.5t-0.5 -3.5q-2 -8 -8 -13h-7q-27 0 -36.5 -5.5t-13.5 -19.5l-161 -600q-1 -2 -1 -7q0 -18 45 -18q7 -11 -7 -25h-175q-8 12 7 25q50 0 56 25l142 530l-227 -292q-3 -4 -6 -6t-4.5 -2.5t-4 -0.5t-3.5 -1q-3 2 -6.5 6t-5.5 6l-73 290l-142 -530 q-1 -2 -1 -6q0 -19 48 -19q7 -11 -7 -25h-155q-2 4 -2 9q0 9 9 16q52 0 58 25l161 600q1 4 1 11q0 9 -6 11.5t-23 2.5h-17q-4 7 -1.5 14.5t8.5 10.5h105l65 -293q2 -17 14 -17q9 0 24 17l224 293h125z" />
<glyph unicode="N" horiz-adv-x="531" d="M586 660q0 10 -30 13.5t-30 10.5t13 16h175q2 -4 2 -7q0 -11 -9 -18q-46 -1 -57.5 -5t-15.5 -20l-159 -594q-6 -24 -6 -36t4 -20h-64l-115 575l-141 -525q0 -1 -0.5 -2.5t-0.5 -2.5q0 -20 58 -20q4 -6 1.5 -13.5t-8.5 -11.5h-175q-2 6 -2 9q0 9 9 16q62 0 68 25l161 600 q1 3 1 8q0 10 -11.5 13t-44.5 4q-2 6 -2 13q5 9 9 12h125l107 -560l136 510q2 8 2 10z" />
<glyph unicode="O" horiz-adv-x="732" d="M399 15q50 0 104.5 36t100 95.5t75 146.5t29.5 179q0 95 -43.5 153.5t-141.5 58.5q-46 0 -99.5 -34t-100 -90.5t-77 -141t-30.5 -174.5q0 -100 43.5 -164.5t139.5 -64.5zM796 458q0 -111 -60 -219.5t-161.5 -178.5t-212.5 -70q-115 0 -177 72.5t-62 183.5 q0 109 57.5 215.5t159 177.5t215.5 71q115 0 178 -71t63 -181z" />
<glyph unicode="P" horiz-adv-x="515" d="M635 563q0 -82 -68 -156.5t-157 -74.5q-81 0 -159 33l-85 -315q-1 -2 -1 -7q0 -18 45 -18q4 -6 1.5 -13.5t-8.5 -11.5h-175q-2 6 -2 9q0 9 9 16q50 0 56 25l161 600q1 3 1 7q0 18 -44 18q-2 6 -2 13q4 9 9 12h279q62 0 101 -39t39 -98zM374 374q47 0 84.5 20.5t58.5 52 t32 66t11 66.5q0 96 -111 96h-90q-14 0 -21 -5.5t-11 -19.5l-68 -256q39 -20 115 -20z" />
<glyph unicode="Q" horiz-adv-x="732" d="M399 15q50 0 104.5 36t100 95.5t75 146.5t29.5 179q0 95 -43.5 153.5t-141.5 58.5q-46 0 -99.5 -34t-100 -90.5t-77 -141t-30.5 -174.5q0 -100 43.5 -164.5t139.5 -64.5zM122 241q0 113 59 221.5t160.5 178t213.5 69.5q115 0 178 -71t63 -181q0 -149 -106 -288.5 t-259 -172.5q-3 -12 -3 -24q0 -62 61.5 -112t125.5 -51l-104 -60q-52 23 -92 86.5t-40 127.5q0 10 2 26q-124 0 -191.5 68.5t-67.5 182.5z" />
<glyph unicode="R" horiz-adv-x="550" d="M374 374q41 0 74 16t52.5 39.5t32.5 53t17.5 53.5t4.5 44q0 95 -106 95h-90q-14 0 -21 -5.5t-11 -19.5l-68 -256q39 -20 115 -20zM640 561q0 -79 -69 -154t-162 -75q-1 0 -43 3q2 -54 30 -128.5t63 -128t58 -53.5h25q4 -6 1.5 -13.5t-8.5 -11.5h-87q-44 0 -90.5 98.5 t-74.5 248.5q-24 8 -32 18l-85 -315q-1 -2 -1 -7q0 -18 45 -18q4 -6 1.5 -13.5t-8.5 -11.5h-175q-2 6 -2 9q0 9 9 16q50 0 56 25l161 600q3 9 3 14q0 11 -23 11h-23q-7 11 7 25h279q63 0 104 -40t41 -99z" />
<glyph unicode="S" horiz-adv-x="537" d="M190 505q0 22 5.5 45.5t23.5 53.5t47 52.5t82.5 38t122.5 15.5q47 0 115 -26.5t68 -64.5q0 -16 -11 -26.5t-24 -10.5q-14 0 -24.5 10.5t-20.5 25.5t-24.5 30t-42.5 25.5t-68 10.5q-58 0 -114.5 -46t-56.5 -105q0 -32 21.5 -59.5t53.5 -46t69 -41t69 -43.5t53.5 -54.5 t21.5 -74.5q0 -29 -8.5 -57.5t-30.5 -59.5t-54.5 -54t-86.5 -38t-122 -15q-91 0 -144.5 40.5t-53.5 74.5q0 17 12.5 28.5t27.5 11.5q16 0 27 -20.5t17.5 -44.5t29.5 -44.5t61 -20.5q97 0 169 48t72 126q0 34 -21 63t-52 48t-68 41t-68 42t-52 52t-21 70z" />
<glyph unicode="T" horiz-adv-x="702" d="M441 675q-60 0 -102 -11t-61.5 -26.5t-31.5 -31.5t-23 -27t-25 -11q-16 0 -20 18l87 114h532l25 -114q-14 -18 -30 -18q-4 0 -14 4q-27 70 -56.5 86.5t-119.5 16.5h-16q-27 0 -34 -25l-161 -600q-1 -2 -1 -7q0 -18 45 -18q4 -6 1.5 -13.5t-8.5 -11.5h-175q-4 7 -2 12.5 t4.5 8.5t4.5 4q50 0 56 25l161 600q2 8 2 11q0 14 -22 14h-16z" />
<glyph unicode="U" horiz-adv-x="609" d="M786 693q0 -11 -9 -18h-26q-26 -4 -32 -30l-118 -439q-27 -98 -117 -157t-191 -59q-78 0 -131.5 42t-53.5 112q0 25 7 50l122 456q2 8 2 11q0 14 -22 14h-23q-4 5 -2 13t9 12h175q8 -12 -7 -25h-26q-24 -2 -31 -25l-118 -441q-8 -30 -8 -54q0 -62 39 -101t105 -39 q73 0 122.5 49.5t69.5 125.5l122 455q2 8 2 12q0 18 -21 18h-23q-4 7 -3 11q0 5 10 14h175q2 -4 2 -7z" />
<glyph unicode="V" horiz-adv-x="620" d="M623 700h158q2 -4 2 -7q0 -11 -9 -18h-33q-19 0 -34 -27l-376 -648l-51 -10l-30 660q-1 25 -24 25h-19q-4 4 -4 7t1 5q0 3 10 13h175q8 -12 -7 -25h-30q-27 -4 -27 -23v-2l26 -546l315 546q4 7 4 13q0 12 -22 12h-32q-3 7 -2 12q0 7 9 13z" />
<glyph unicode="W" horiz-adv-x="926" d="M1082 693q0 -11 -9 -18h-26q-28 -3 -41 -27l-376 -648l-51 -10l-18 408l-231 -398l-51 -10l-30 660q-1 14 -4.5 19.5t-13.5 5.5h-25q-3 5 -3 9q0 8 10 16h175q8 -12 -7 -25h-28q-17 -2 -23 -6t-6 -16v-3l26 -546l207 360l-8 186q-1 25 -18 25h-25q-3 7 -2 12q0 7 9 13 h175q8 -12 -7 -25h-24q-33 -2 -33 -24v-1l26 -546l315 546q0 2 0.5 4t0.5 3q0 14 -15 18h-36q-10 13 7 25h158q2 -4 2 -7z" />
<glyph unicode="X" horiz-adv-x="548" d="M214 700h175q8 -12 -7 -25h-30q-28 -2 -28 -18q0 -4 1 -7l67 -248l198 248q8 9 8 16q0 9 -28 9h-37q-10 14 7 25h175q1 -3 1 -9q0 -5 -8 -16h-26q-26 -2 -45 -25l-234 -292l82 -308q7 -25 44 -25q4 -6 1.5 -13.5t-8.5 -11.5h-175q-5 8 -3 12q0 6 10 13h31q26 2 26 17 q0 5 -1 8l-63 238l-192 -238q-9 -13 -9 -16q0 -9 28 -9h39q9 -12 -7 -25h-175q-2 4 -2 9q0 9 9 16h25q26 2 45 25l227 282l-85 318q-3 13 -12 18.5t-31 6.5q-7 15 7 25z" />
<glyph unicode="Y" horiz-adv-x="580" d="M226 700h175q8 -12 -7 -25h-13q-34 0 -44 -25l76 -272l199 272q3 9 3 14q0 11 -23 11h-37q-10 14 7 25h175l1 -12q-4 -7 -8 -13h-35q-19 -3 -36 -25l-237 -318l-76 -282q-1 -2 -1 -7q0 -18 45 -18q4 -6 1.5 -13.5t-8.5 -11.5h-175q-2 6 -2 9q0 9 9 16q50 0 56 25l76 282 l-85 318q-6 25 -43 25q-9 14 7 25z" />
<glyph unicode="Z" horiz-adv-x="522" d="M203 25q77 0 134 11t85 26.5t45.5 31.5t29.5 27t23 11q16 0 21 -18l-87 -114h-426l-2 12l9 13q33 2 59 33l481 592q1 4 1 10q0 15 -24 15h-16q-76 0 -132 -11t-83.5 -26.5t-45 -31.5t-29 -27t-23.5 -11q-16 0 -20 18l87 114h392l1 -12q-11 -21 -141 -179.5t-254 -309.5 t-124 -160q0 -14 22 -14h17z" />
<glyph unicode="[" horiz-adv-x="205" d="M164 -150h-181l228 852h181l-7 -25q-8 0 -26 1t-27 1q-61 0 -73 -46l-190 -706q-3 -11 -3 -20q0 -34 53 -34q9 0 26.5 1t25.5 1z" />
<glyph unicode="\" horiz-adv-x="322" d="M311 -10h-68q-1 233 -46 720h67v-35q0 -322 47 -685z" />
<glyph unicode="]" horiz-adv-x="251" d="M142 -150h-181l7 25q8 0 25 -1t25 -1q64 0 78 54l190 706q2 12 2 15q0 31 -51 31q-10 0 -28.5 -1t-26.5 -1l7 25h181z" />
<glyph unicode="^" horiz-adv-x="443" d="M510 393h-60l-123 251l-125 -251h-60l158 317h52z" />
<glyph unicode="_" horiz-adv-x="495" d="M460 -150h-505l13 50h505z" />
<glyph unicode="`" horiz-adv-x="266" d="M394 516l-23 -18l-172 124q5 21 23.5 36t39.5 15z" />
<glyph unicode="a" horiz-adv-x="525" d="M364 424q-62 0 -127.5 -85.5t-65.5 -208.5q0 -114 99 -114q41 0 77.5 22t47.5 62l73 275q-39 49 -104 49zM87 154q0 69 37.5 137t103.5 113.5t140 45.5q28 0 60 -15t47 -35l13 48h75l-107 -398q-2 -8 -2 -12q0 -21 19 -21q11 0 27 8q-24 -35 -77 -35q-21 0 -29.5 6.5 t-11 16t-6.5 11.5q-67 -34 -132 -34q-74 0 -115.5 46.5t-41.5 117.5z" />
<glyph unicode="b" horiz-adv-x="520" d="M247 16q46 0 84 24.5t60.5 59.5t38 75.5t21.5 70.5t6 47q0 52 -21.5 91.5t-62.5 39.5q-66 0 -132 -49l-73 -275q-3 -12 -3 -21q0 -30 24 -46.5t58 -16.5zM540 286q0 -69 -37.5 -137t-103.5 -113.5t-140 -45.5q-45 0 -97.5 30t-82.5 30l161 600l-36 50q24 1 73 25.5 t75 24.5q-17 -25 -23 -50l-81 -300q25 20 65.5 35t69.5 15q74 0 115.5 -46.5t41.5 -117.5z" />
<glyph unicode="c" horiz-adv-x="416" d="M347 424q-47 0 -88 -47.5t-63.5 -114.5t-22.5 -130q0 -116 99 -116q57 0 122 58l16 -18q-72 -66 -164 -66q-74 0 -115.5 46.5t-41.5 117.5q0 107 85 201.5t196 94.5q21 0 46.5 -3t53 -15t27.5 -31q0 -15 -13.5 -26.5t-26.5 -11.5q-19 0 -54 30.5t-56 30.5z" />
<glyph unicode="d" horiz-adv-x="526" d="M366 424q-62 0 -127.5 -85.5t-65.5 -208.5q0 -114 99 -114q41 0 77.5 22t47.5 62l73 275q-39 49 -104 49zM89 154q0 69 37.5 137t103.5 113.5t140 45.5q28 0 60 -15t47 -35l67 250l-36 50q25 0 74 25t74 25q-17 -25 -23 -50l-175 -650q-2 -8 -2 -12q0 -21 19 -21 q11 0 27 8q-24 -35 -77 -35q-21 0 -29.5 6.5t-11 16t-6.5 11.5q-67 -34 -132 -34q-74 0 -115.5 46.5t-41.5 117.5z" />
<glyph unicode="e" d="M185 236q31 0 69 6t80.5 19.5t70.5 40t28 62.5q0 29 -25.5 44.5t-61.5 15.5q-29 0 -55 -16.5t-43 -39.5t-31 -51t-20.5 -46t-10.5 -31q-1 -3 -1 -4zM515 357q0 -47 -42 -80t-105.5 -47t-108.5 -19t-78 -5q-9 -34 -9 -70q0 -53 24 -86.5t75 -33.5q32 0 69.5 16.5 t62.5 41.5l17 -20q-73 -64 -175 -64q-74 0 -115.5 46.5t-41.5 117.5q0 107 85 201.5t196 94.5q55 0 100.5 -23.5t45.5 -69.5z" />
<glyph unicode="f" horiz-adv-x="259" d="M588 710q0 -15 -10 -25t-18.5 -12t-14.5 -2q-17 0 -26.5 14.5t-33.5 14.5q-40 0 -72 -16t-52 -40t-35.5 -57.5t-24.5 -64t-18 -65.5q-3 -11 -4 -17h82l-25 -25h-64l-111 -415q-13 -49 -51 -106t-93.5 -100.5t-106.5 -43.5q-128 0 -128 47q0 16 12.5 29.5t31.5 13.5 q16 0 50.5 -32.5t55.5 -32.5q95 0 154 225l111 415h-54l25 25h36l3 10q14 55 64.5 124.5t119.5 122.5t125 53q72 0 72 -40z" />
<glyph unicode="g" horiz-adv-x="514" d="M381 424q-47 0 -85 -24t-60 -57.5t-37 -73t-20.5 -67.5t-5.5 -43q0 -53 22 -93t63 -40q65 0 131 49l71 265q3 12 3 21q0 30 -24 46.5t-58 16.5zM91 164q0 106 81.5 196t196.5 90q45 0 97 -30t82 -30l-116 -436q-16 -59 -96 -131.5t-139 -72.5q-128 0 -128 47 q0 16 12.5 29.5t31.5 13.5q16 0 50.5 -32.5t55.5 -32.5q92 0 141 193l22 82q-25 -20 -65 -35t-69 -15q-74 0 -115.5 46.5t-41.5 117.5z" />
<glyph unicode="h" horiz-adv-x="505" d="M487 40q-12 -23 -36 -36.5t-48 -13.5q-19 0 -31 9.5t-12 25.5q0 5 2 15l68 260q9 29 9 54q0 46 -38 46q-48 0 -156 -85l-84 -315l-78 -10l177 660l-36 50q24 0 73.5 25t74.5 25q-17 -25 -23 -50l-101 -375q34 37 55.5 57.5t60 44t69.5 23.5q40 0 62 -24.5t22 -62.5 q0 -22 -5 -38l-69 -260q-3 -18 -3 -20q0 -21 15 -21q11 0 32 16z" />
<glyph unicode="i" horiz-adv-x="239" d="M219 40q-12 -23 -36 -36.5t-48 -13.5q-19 0 -31 9.5t-12 25.5q0 5 2 15l83 310l-37 50q26 0 75 25t74 25q-16 -24 -24 -50l-90 -335q-3 -18 -3 -20q0 -21 15 -21q11 0 32 16zM338 634q0 -25 -22.5 -43.5t-44.5 -18.5q-17 0 -27.5 10t-10.5 26q0 25 20.5 45t44.5 20 q18 0 29 -11t11 -28z" />
<glyph unicode="j" horiz-adv-x="239" d="M-217 -203q0 16 12.5 29.5t31.5 13.5q16 0 50.5 -32.5t55.5 -32.5q92 0 141 193l103 382l-37 50q26 0 75 25t74 25q-15 -20 -24 -50l-119 -446q-16 -58 -96 -131t-139 -73q-128 0 -128 47zM338 634q0 -25 -22.5 -43.5t-44.5 -18.5q-17 0 -27.5 10t-10.5 26q0 25 20.5 45 t44.5 20q18 0 29 -11t11 -28z" />
<glyph unicode="k" horiz-adv-x="496" d="M580 400q0 -31 -35 -31q-17 0 -39.5 27.5t-45.5 27.5q-38 -22 -61.5 -43.5t-50 -53t-50.5 -54.5q3 -5 21.5 -39.5t37 -66t41 -66.5t43.5 -56t35 -21q11 0 32 16q-12 -23 -36 -36.5t-48 -13.5q-20 0 -38 14t-28 32l-134 221l-69 -257l-78 -10l177 660l-36 50q26 0 74.5 25 t73.5 25q-17 -25 -23 -50l-114 -422q23 6 52 34.5t53 58.5t64 54.5t85 24.5q14 0 29.5 -2.5t31.5 -7.5t26 -15.5t10 -24.5z" />
<glyph unicode="l" horiz-adv-x="239" d="M219 40q-12 -23 -36 -36.5t-48 -13.5q-19 0 -31 9.5t-12 25.5q0 5 2 15l163 610l-36 50q25 1 74 25.5t74 24.5q-18 -29 -23 -50l-171 -635q-3 -18 -3 -20q0 -21 15 -21q11 0 32 16z" />
<glyph unicode="m" horiz-adv-x="768" d="M751 40q-12 -23 -36 -36.5t-48 -13.5q-19 0 -31 9.5t-12 25.5q0 5 2 15l69 260q9 29 9 54q0 46 -38 46q-43 0 -157 -86l-84 -314l-78 -10l83 310q9 29 9 54q0 46 -38 46q-48 0 -156 -85l-84 -315l-78 -10l97 360l-37 50q24 0 74 25t75 25q-15 -20 -24 -50l-20 -75 q34 37 55.5 57.5t60 44t69.5 23.5q39 0 61.5 -25t22.5 -63q0 -16 -5 -36q116 124 186 124q40 0 62 -24t22 -62q0 -23 -5 -39l-70 -260q-3 -18 -3 -20q0 -21 15 -21q11 0 32 16z" />
<glyph unicode="n" horiz-adv-x="505" d="M486 40q-12 -23 -36 -36.5t-48 -13.5q-19 0 -31 9.5t-12 25.5q0 5 2 15l69 260q9 29 9 54q0 46 -38 46q-48 0 -156 -85l-84 -315l-78 -10l97 360l-37 50q25 0 74.5 25t74.5 25q-15 -20 -24 -50l-20 -75q34 37 55.5 57.5t60 44t69.5 23.5q40 0 62 -24t22 -62q0 -23 -5 -39 l-70 -260q-3 -18 -3 -20q0 -21 15 -21q11 0 32 16z" />
<glyph unicode="o" horiz-adv-x="503" d="M271 16q42 0 77.5 33t56 82t31.5 97.5t11 86.5q0 109 -101 109q-48 0 -89.5 -48.5t-63 -115.5t-21.5 -128q0 -116 99 -116zM526 286q0 -107 -85 -201.5t-196 -94.5q-74 0 -115.5 46.5t-41.5 117.5q0 107 85 201.5t196 94.5q74 0 115.5 -46.5t41.5 -117.5z" />
<glyph unicode="p" horiz-adv-x="532" d="M277 15q63 0 128 86.5t65 208.5q0 114 -99 114q-41 0 -77.5 -22t-47.5 -62l-74 -275q41 -50 105 -50zM554 287q0 -72 -39 -140.5t-105 -112.5t-137 -44q-29 0 -61 15t-46 35l-75 -280l-78 -10l161 600l-41 52q30 0 80.5 23t71.5 25l-17 -36q69 36 129 36q75 0 116 -46 t41 -117z" />
<glyph unicode="q" horiz-adv-x="514" d="M382 424q-46 0 -84 -24.5t-60.5 -59.5t-38 -75.5t-21.5 -70.5t-6 -47q0 -52 21.5 -91.5t62.5 -39.5q67 0 131 49l74 275q3 12 3 21q0 30 -24 46.5t-58 16.5zM89 154q0 69 37.5 137t103.5 113.5t140 45.5q26 0 66 -14t62 -14q40 0 78 28q-1 -2 -11 -21t-13 -29l-171 -640 l-78 -10l78 290q-26 -20 -66.5 -35t-68.5 -15q-74 0 -115.5 46.5t-41.5 117.5z" />
<glyph unicode="r" horiz-adv-x="409" d="M505 408q0 -14 -10.5 -23.5t-19.5 -11.5t-14 -2q-16 0 -26 14.5t-34 14.5q-48 0 -156 -85l-84 -315l-78 -10l97 360l-37 50q24 0 74 25t75 25q-15 -20 -24 -50l-20 -75q36 38 56 57.5t58.5 43.5t70.5 24q28 0 50 -10t22 -32z" />
<glyph unicode="s" horiz-adv-x="407" d="M403 148q0 -28 -9 -52t-31.5 -50t-71.5 -41t-120 -15q-129 0 -129 46q0 15 13.5 29.5t28.5 14.5q18 0 53 -32.5t56 -32.5q63 0 100 32.5t37 68.5q0 23 -20 41t-48.5 31t-57.5 27.5t-49 37.5t-20 53q0 54 48.5 99t155.5 45q15 0 31.5 -1.5t38.5 -5.5t36.5 -13.5 t14.5 -23.5q0 -15 -14.5 -29.5t-27.5 -14.5q-17 0 -49 31t-53 31q-44 0 -75.5 -28t-31.5 -64q0 -28 30.5 -49t66.5 -33t66.5 -38t30.5 -64z" />
<glyph unicode="t" horiz-adv-x="329" d="M337 58q-34 -36 -64 -52t-69 -16q-98 0 -98 94q0 23 8 55l74 276h-54l25 25q21 0 45.5 24t42.5 53t39.5 55t36.5 28q-13 -14 -24 -50l-29 -110h82l-25 -25h-64l-68 -255q-16 -57 -16 -87q0 -57 51 -57q37 0 89 58z" />
<glyph unicode="u" horiz-adv-x="497" d="M477 40q-12 -23 -36 -36.5t-48 -13.5q-43 0 -43 38q0 12 3.5 26.5t10 34t8.5 26.5q-29 -30 -42 -42.5t-41 -37t-53 -35t-49 -10.5q-40 0 -62 24t-22 62q0 23 5 39l63 235l-37 50h3q23 0 72 25t74 25q-15 -20 -24 -50l-69 -260q-9 -29 -9 -54q0 -46 38 -46q49 0 155 85 l85 315l78 10l-104 -385q-3 -18 -3 -20q0 -21 15 -21q11 0 32 16z" />
<glyph unicode="v" horiz-adv-x="472" d="M518 398q0 -49 -22.5 -106t-45.5 -93t-72 -104t-67 -95h-47l-95 426l-64 -14l-1 18q24 4 62 20q21 0 33.5 -1.5t26 -6t21 -15t10.5 -27.5l67 -316q3 4 49 63.5t72 102.5t26 69q0 15 -12.5 47t-12.5 45q0 18 14 28.5t31 10.5q27 0 27 -52z" />
<glyph unicode="w" horiz-adv-x="725" d="M770 399q0 -55 -23.5 -114t-51.5 -99t-70.5 -97.5t-61.5 -88.5h-47l-53 218q-22 -38 -76 -109t-76 -109h-47l-95 426l-64 -14l-1 18q24 4 62 20q21 0 33.5 -1.5t26 -6t21 -15t10.5 -27.5l68 -324q20 34 65.5 96t63.5 92l-41 176l78 10l84 -374q5 8 49 65.5t71.5 103.5 t27.5 74q0 15 -12.5 47t-12.5 45q0 18 14 28.5t31 10.5q27 0 27 -51z" />
<glyph unicode="x" horiz-adv-x="481" d="M565 425q0 -20 -18 -32t-41.5 -16t-52 -13t-43.5 -22q-44 -37 -77 -78l33 -162q17 -78 38 -78q24 0 44 26q-22 -61 -86 -61q-47 0 -62 63l-29 130q-19 -28 -42.5 -56.5t-55 -61.5t-65 -53.5t-60.5 -20.5q-10 0 -18 8t-8 18q0 20 17.5 32.5t39.5 17.5t49 14t40 20 q40 34 92 118l-42 206l-65 -9v15q62 20 79 20q20 0 35 -8t23.5 -18.5t15 -29.5t9.5 -32.5t6.5 -35.5t5.5 -32q40 48 104.5 102t102.5 54q31 0 31 -25z" />
<glyph unicode="y" horiz-adv-x="439" d="M477 400q0 -62 -43.5 -171t-107 -215.5t-147.5 -185t-155 -78.5q-128 0 -128 47q0 16 12.5 29.5t31.5 13.5q16 0 51 -32.5t55 -32.5q11 0 26.5 9t34 27t34 35.5t35.5 43t30.5 39.5t26.5 37l16 22l-97 437l-65 -10l-1 13q56 17 63 22h15q65 0 76 -50l72 -335q35 54 76 136 t41 115q0 21 -12 51.5t-12 42.5q0 18 14 29t31 11q27 0 27 -50z" />
<glyph unicode="z" horiz-adv-x="407" d="M413 65q0 -11 -6.5 -21.5t-22.5 -20.5t-49.5 -16.5t-80.5 -6.5h-212q15 53 54.5 102t86 86t92 72t82.5 74.5t49 79.5h-100q-37 0 -74 -30.5t-59 -30.5l-23 17l66 70h271q-14 -52 -53 -101t-85 -87t-92 -73.5t-82.5 -75t-47.5 -78.5h119q22 0 73 32.5t70 32.5q24 0 24 -25 z" />
<glyph unicode="{" horiz-adv-x="292" d="M244 -200q-67 1 -99 18t-32 63q0 23 9 58l54 202q8 30 8 48q0 25 -14.5 40t-48.5 26q54 15 78 38t38 75l54 203q22 82 67.5 110t129.5 29q-57 -19 -84 -48t-43 -86l-51 -193q-17 -62 -40 -88t-84 -41q36 -10 51 -24.5t15 -40.5q0 -22 -11 -63l-52 -193q-8 -32 -8 -52 q0 -52 63 -81z" />
<glyph unicode="|" horiz-adv-x="286" d="M267 -10h-66v760h66v-760z" />
<glyph unicode="}" horiz-adv-x="300" d="M363 255q-54 -16 -77.5 -39t-37.5 -75l-55 -203q-23 -83 -67 -110t-130 -28q56 12 84 43.5t43 89.5l52 193q17 62 40 88t83 41q-36 10 -51 24.5t-15 39.5q0 19 12 64l51 193q10 38 10 61q0 61 -65 73q68 -1 100 -18t32 -64q0 -24 -9 -58l-54 -202q-8 -30 -8 -48 q0 -25 14.5 -39.5t47.5 -25.5z" />
<glyph unicode="~" horiz-adv-x="500" d="M220 314q40 0 98 -29q58 -30 86 -30q34 0 73 59l47 -30q-63 -87 -116 -87q-41 0 -97 30q-58 29 -86 29q-34 0 -73 -59l-47 30q61 87 115 87z" />
<glyph unicode="&#xa1;" horiz-adv-x="248" d="M119 -199q-4 -20 -24.5 -35.5t-40.5 -15.5q-16 0 -27.5 10.5t-11.5 25.5q0 8 3 15l186 509zM287 432q0 -22 -20.5 -42.5t-46.5 -20.5q-17 0 -27.5 10.5t-10.5 26.5q0 25 20.5 44.5t44.5 19.5q17 0 28.5 -11t11.5 -27z" />
<glyph unicode="&#xa2;" horiz-adv-x="416" d="M347 424q-44 0 -85.5 -43t-67 -110t-25.5 -134q0 -30 7 -54l200 331q-18 10 -29 10zM497 400q0 -14 -12.5 -25.5t-26.5 -11.5q-17 0 -46 24q-148 -240 -210 -348q25 -24 70 -24q57 0 122 59l16 -18q-72 -66 -164 -66q-32 0 -64 13q-78 -133 -89 -153h-68l117 179 q-48 44 -48 123q0 68 36 136.5t101.5 115t140.5 46.5q16 0 24 -1q35 60 83 151h67l-100 -158q51 -14 51 -42z" />
<glyph unicode="&#xa3;" horiz-adv-x="466" d="M122 98q-19 0 -32 -6.5t-18 -16t-7 -16.5t-2 -13q0 -25 30 -25q23 0 48.5 23t25.5 37q0 8 -17 12.5t-28 4.5zM652 666q0 -14 -14 -28.5t-28 -14.5q-16 0 -48 30.5t-55 30.5q-51 0 -97 -55.5t-60 -110.5q-3 -12 -5.5 -38t-7.5 -40h111l-24 -50h-100q-5 -47 -32.5 -133 t-61.5 -141q5 -2 55.5 -35t73.5 -33q49 0 126 54q-26 -38 -72.5 -74t-83.5 -36q-66 0 -134 64q-66 -64 -109 -64q-53 0 -53 44q0 38 32.5 69t79.5 31q20 0 42 -5q44 111 51 259h-84l24 50h69q25 85 113.5 177.5t169.5 92.5q15 0 31.5 -1.5t39 -5.5t37 -13.5t14.5 -23.5z" />
<glyph unicode="&#xa4;" horiz-adv-x="592" d="M493 281q0 51 -36 89t-87 38q-53 0 -90 -37.5t-37 -90.5t37 -90.5t89 -37.5t88 38t36 91zM599 91l-41 -42l-83 83q-49 -35 -106 -35q-55 0 -108 35l-82 -83l-41 42l82 82q-35 50 -35 107q0 59 35 107l-82 83l41 41l81 -81q53 33 108 33q58 0 106 -33l84 81l41 -41 l-81 -83q33 -49 33 -106q0 -55 -33 -108z" />
<glyph unicode="&#xa5;" horiz-adv-x="570" d="M729 688q-3 -7 -8 -13q-15 0 -39 -7t-32 -18l-237 -318l-9 -32h82l-13 -50h-82l-17 -65h82l-14 -50h-82l-23 -85q-1 -4 -1 -11q0 -15 21 -15q3 0 11.5 0.5t12.5 0.5q4 -6 1.5 -13.5t-8.5 -11.5h-175l-2 12q2 3 9 13q5 0 13 -0.5t11 -0.5q26 0 32 26l23 85h-89l14 50h89 l17 65h-89l13 50h89l9 32l-85 318q-6 25 -43 25q-2 8 -2 13l9 12h175q8 -12 -7 -25q-4 0 -12 0.5t-11 0.5q-27 0 -34 -26l78 -266l197 266q2 8 2 10q0 17 -25 17q-6 0 -17 -1t-17 -1q-10 14 7 25h175z" />
<glyph unicode="&#xa6;" horiz-adv-x="293" d="M271 440h-67v310h67v-310zM270 -10h-66v310h66v-310z" />
<glyph unicode="&#xa7;" horiz-adv-x="410" d="M300 153q30 0 57 26.5t27 60.5q0 48 -42 105t-82 57q-38 0 -62.5 -32.5t-24.5 -70.5q0 -37 47 -91.5t80 -54.5zM446 302q0 -67 -45 -119t-119 -52q19 -26 26.5 -36.5t16.5 -32.5t9 -43q0 -71 -62 -120t-135 -49q-15 0 -31.5 1.5t-39 5.5t-37 13.5t-14.5 23.5t14 29t29 15 q16 0 48.5 -31t53.5 -31q36 0 74 28t38 69q0 29 -25 63t-54.5 61.5t-54.5 70t-25 86.5q0 64 43.5 117.5t108.5 53.5q13 0 19 -1q-19 23 -29 37t-19 36t-9 45q0 62 48 115t133 53q122 0 122 -44q0 -14 -14 -29t-29 -15q-16 0 -49 31t-53 31q-36 0 -67.5 -34.5t-31.5 -64.5 q0 -24 25 -57.5t55 -62.5t55 -73.5t25 -89.5z" />
<glyph unicode="&#xa8;" horiz-adv-x="385" d="M312 589q0 -25 -21 -44.5t-45 -19.5q-18 0 -28.5 10.5t-10.5 26.5q0 26 21.5 45t44.5 19q17 0 28 -10.5t11 -26.5zM480 589q0 -25 -21 -44.5t-45 -19.5q-18 0 -28.5 10.5t-10.5 26.5q0 26 21.5 45t44.5 19q17 0 28 -10.5t11 -26.5z" />
<glyph unicode="&#xa9;" horiz-adv-x="548" d="M626 485q0 -93 -66 -159t-159 -66t-159 66t-66 161q0 93 65.5 158t158.5 65t159 -66t67 -159zM604 485q-1 84 -60.5 143.5t-143.5 59.5t-142.5 -59.5t-58.5 -143.5q0 -83 59.5 -142.5t142.5 -59.5q84 0 143.5 59t59.5 143zM401 326q-62 0 -100.5 46.5t-39.5 110.5 q0 63 39 109t101 46q23 0 57 -12.5t34 -30.5v-1q1 -4 -2.5 -7.5t-8.5 -3.5q-9 0 -18.5 11t-27 22t-44.5 11q-40 0 -65 -43t-25 -85q0 -62 29 -112.5t86 -50.5q16 0 28 9t17.5 19.5t12.5 19.5t14 9q5 0 10 -4t5 -9q0 -23 -38 -38.5t-64 -15.5z" />
<glyph unicode="&#xaa;" horiz-adv-x="362" d="M377 564q-53 -1 -97 -29t-44 -66q0 -17 12 -27.5t31 -10.5q20 0 41 12t33 30zM429 441q-5 -15 -18 -24q-15 -10 -33 -10q-14 0 -24.5 7.5t-10.5 20.5q0 4 1 7q-33 -35 -82 -35q-35 0 -60.5 14.5t-25.5 43.5q0 37 38.5 65t84 39.5t83.5 11.5l7 28q5 17 5 31q0 43 -39 43 q-23 0 -44.5 -13.5t-37.5 -26.5t-25 -13q-8 0 -12.5 5.5t-2.5 13.5q7 25 48.5 43t69.5 18q104 0 104 -63q0 -7 -4 -25l-43 -160q-3 -9 -3 -19q0 -11 6 -11q7 0 18 9z" />
<glyph unicode="&#xab;" horiz-adv-x="461" d="M348 406l-178 -182l72 -172l-14 -13q-81 116 -152 183q106 58 264 194q10 0 8 -10zM540 406l-178 -182l72 -172l-14 -13q-23 47 -65.5 97.5t-86.5 85.5q54 27 132 85.5t132 108.5q10 0 8 -10z" />
<glyph unicode="&#xac;" horiz-adv-x="583" d="M573 118h-51v232h-401v50h452v-282z" />
<glyph unicode="&#xad;" horiz-adv-x="438" d="M420 191h-300l15 57h300z" />
<glyph unicode="&#xae;" horiz-adv-x="548" d="M626 485q0 -93 -66 -159t-159 -66t-159 66t-66 161q0 93 65.5 158t158.5 65t159 -66t67 -159zM604 485q-1 84 -60.5 143.5t-143.5 59.5t-142.5 -59.5t-58.5 -143.5q0 -83 59.5 -142.5t142.5 -59.5q84 0 143.5 59t59.5 143zM516 334l-2 -4h-77l-2 4l3 6h4q17 0 17 10v2 l-94 129q-10 1 -18 7v-136q1 -12 19 -12h4l1 -6l-2 -4h-76l-2 4l3 6h4.5h4.5t3.5 0.5t3.5 1t2.5 2t2 3.5t0.5 5v261q0 10 -22 10l-1 6l1 5q21 0 61 2t61 2q32 0 56 -25.5t24 -57.5q0 -80 -94 -80l102 -135h12zM347 613v-112q21 -9 53 -9q29 0 45 17t16 46q0 33 -16.5 52.5 t-48.5 19.5q-6 0 -19 -2t-19 -2q-11 0 -11 -10z" />
<glyph unicode="&#xaf;" horiz-adv-x="273" d="M461 620h-300l14 50h300z" />
<glyph unicode="&#xb0;" horiz-adv-x="357" d="M313 504q40 0 74.5 32t34.5 72q0 27 -17.5 46t-45.5 19q-41 0 -75 -34.5t-34 -72.5q0 -26 18 -44t45 -18zM467 619q0 -61 -51.5 -106.5t-113.5 -45.5q-42 0 -69 25.5t-27 64.5q0 59 51 106t112 47q44 0 71 -25.5t27 -65.5z" />
<glyph unicode="&#xb1;" horiz-adv-x="536" d="M96 358h189v192h59v-192h190v-57h-190v-191h-58v191h-190v57zM95 57h438v-57h-438v57z" />
<glyph unicode="&#xb2;" horiz-adv-x="380" d="M208 609q0 34 49 69t120 35q44 0 73 -19.5t29 -56.5q0 -40 -27 -75.5t-67 -61.5t-81 -49.5t-73 -51.5t-39 -57h22q69 0 113.5 10.5t58.5 23t25.5 23t22.5 10.5q15 0 18 -15l-60 -77h-271q13 42 48.5 79.5t77 64t81.5 52.5t66.5 57t26.5 65q0 25 -16.5 39.5t-45.5 14.5 q-33 0 -54 -15.5t-28.5 -34.5t-18.5 -34.5t-26 -15.5q-9 0 -16.5 5.5t-7.5 14.5z" />
<glyph unicode="&#xb3;" horiz-adv-x="331" d="M394 441q0 -66 -60 -131t-139 -65q-27 0 -61 13.5t-34 35.5q0 14 12 24t23 10q12 0 19 -9t10 -20t15 -20t34 -9q46 0 78 52t32 99q0 59 -51 59q-24 0 -47 -14l15 44q65 2 104.5 41.5t39.5 82.5q0 25 -15 40.5t-41 15.5q-30 0 -48 -15.5t-23.5 -34.5t-16 -34.5 t-27.5 -15.5q-23 0 -23 21q0 29 40.5 66t114.5 37q39 0 62.5 -20.5t23.5 -54.5q0 -36 -25.5 -73.5t-55.5 -52.5q44 -22 44 -72z" />
<glyph unicode="&#xb4;" horiz-adv-x="250" d="M378 622l-189 -124l-13 18l165 157q18 0 28.5 -11t10.5 -27q0 -5 -2 -13z" />
<glyph unicode="&#xb5;" horiz-adv-x="497" d="M106 -100q0 -68 -20.5 -109t-54.5 -41q-32 0 -32 38q0 33 36.5 113t43.5 106l92 343l-37 50q37 18 52 25t44.5 16t52.5 9q-15 -20 -24 -50l-69 -260q-9 -29 -9 -54q0 -46 38 -46q49 0 155 85l61 225l-37 50q37 18 52 25t44.5 16t52.5 9q-15 -20 -24 -50l-90 -335 q-3 -18 -3 -20q0 -21 15 -21q11 0 32 16q-12 -23 -36 -36.5t-48 -13.5q-43 0 -43 38q0 12 3.5 26.5t10 34t8.5 26.5q-117 -125 -185 -125q-35 0 -67 28l-10 -36q-5 -19 -5 -50q0 -5 0.5 -15.5t0.5 -16.5z" />
<glyph unicode="&#xb6;" horiz-adv-x="498" d="M406 700q21 0 46 -5q37 -5 46 -5q56 0 124 20q-42 -145 -115 -415.5t-104 -404.5h-70q119 409 205 758h-77q-120 -412 -202 -758h-70q37 115 87 301l25 94q-69 0 -111 44.5t-42 111.5q0 96 82.5 177.5t175.5 81.5zM392 644h-13q-60 0 -115.5 -60.5t-55.5 -131.5 q0 -50 27.5 -87.5t74.5 -42.5z" />
<glyph unicode="&#xb7;" horiz-adv-x="232" d="M235 248q0 -25 -16.5 -41t-41.5 -16q-24 0 -41 16.5t-17 40.5t17 41t41 17t41 -17t17 -41z" />
<glyph unicode="&#xb8;" horiz-adv-x="333" d="M214 -127q0 -50 -43.5 -86.5t-91.5 -36.5q-25 0 -41.5 18.5t-18.5 42.5q24 -26 54 -26q27 0 50.5 24t23.5 53q0 15 -11.5 23t-24 9.5t-33.5 1.5h-8l74 114h40l-54 -80q23 5 43 5t30.5 -18.5t10.5 -43.5z" />
<glyph unicode="&#xb9;" horiz-adv-x="157" d="M223 337q5 -3 3.5 -11t-9.5 -12h-109q-1 3 -3 11q4 8 9 12q3 0 7.5 -0.5t6.5 -0.5q14 0 17 14l74 277l-25 36q9 4 32.5 17.5t42 21.5t33.5 8q-8 -16 -15 -37l-86 -323q-1 -3 -1 -7q0 -7 9 -7q2 0 6.5 0.5t7.5 0.5z" />
<glyph unicode="&#xba;" horiz-adv-x="390" d="M324 432q48 0 79 61.5t31 120.5q0 69 -66 69q-43 0 -76 -57t-33 -120q0 -74 65 -74zM491 600q0 -73 -57.5 -133t-129.5 -60q-49 0 -77 30t-28 77q0 70 55.5 133t130.5 63q50 0 78 -31t28 -79z" />
<glyph unicode="&#xbb;" horiz-adv-x="461" d="M311 222q-142 -80 -250 -183l-6 13l164 172l-80 182q2 10 12 10q27 -49 74 -108t86 -86zM503 222q-103 -65 -250 -183l-6 13l164 172l-80 182q2 10 12 10q90 -140 160 -194z" />
<glyph unicode="&#xbc;" horiz-adv-x="593" d="M602 115q-12 2 -36.5 5.5t-28.5 3.5l-33 -124h-58l33 124h-139q0 9 63 94.5t126 165.5l63 81l33 -22l-78 -282q33 0 71 15zM489 161l42 155q-3 -4 -35 -43.5t-48.5 -64t-16.5 -37.5q0 -10 12 -10h46zM599 710q-301 -478 -432 -720h-68q259 389 433 720h67zM303 710 q-8 -16 -15 -37l-96 -359h-56l84 313l-25 36q9 4 32.5 17.5t42 21.5t33.5 8z" />
<glyph unicode="&#xbd;" horiz-adv-x="695" d="M463 25q69 0 113.5 10.5t58.5 23t25.5 23t22.5 10.5q15 0 18 -15l-60 -77h-271q13 42 48.5 79.5t77 64t81.5 52.5t66.5 57t26.5 65q0 25 -16.5 39.5t-45.5 14.5q-33 0 -54 -15.5t-28.5 -34.5t-18.5 -34.5t-26 -15.5q-9 0 -16.5 5.5t-7.5 14.5q0 1 0.5 3t0.5 3 q13 49 64 73.5t104 24.5q44 0 73 -19.5t29 -56.5q0 -40 -27 -75.5t-67 -61.5t-81 -49.5t-73 -51.5t-39 -57h22zM599 710q-301 -478 -432 -720h-68q259 389 433 720h67zM303 710q-8 -16 -15 -37l-96 -359h-56l84 313l-25 36q9 4 32.5 17.5t42 21.5t33.5 8z" />
<glyph unicode="&#xbe;" horiz-adv-x="678" d="M685 115q-12 2 -37 5.5t-28 3.5l-33 -124h-58l33 124h-139q0 9 63 94.5t126 165.5l63 81l33 -22l-78 -282q33 0 71 15zM572 161l42 155q-3 -4 -35 -43.5t-48.5 -64t-16.5 -37.5q0 -10 12 -10h46zM681 710q-301 -478 -432 -720h-68q259 389 433 720h67zM377 441 q0 -66 -60 -131t-139 -65q-27 0 -61 13.5t-34 35.5q0 14 12 24t23 10q12 0 19 -9t10 -20t15 -20t34 -9q46 0 78 52t32 99q0 59 -51 59q-24 0 -47 -14l15 44q65 2 104.5 41.5t39.5 82.5q0 25 -15 40.5t-41 15.5q-30 0 -48 -15.5t-23.5 -34.5t-16 -34.5t-27.5 -15.5 q-23 0 -23 21q0 29 40.5 66t114.5 37q39 0 62.5 -20.5t23.5 -54.5q0 -36 -25.5 -73.5t-55.5 -52.5q44 -22 44 -72z" />
<glyph unicode="&#xbf;" horiz-adv-x="360" d="M286 -197q0 -23 -41 -38t-92 -15q-61 0 -95 38.5t-34 97.5q0 42 12 74.5t31 54t46 49.5t54.5 56t59 78t56.5 112q-1 -16 -3 -53.5t-5.5 -67.5t-9.5 -53q-4 -13 -24.5 -31t-46 -39t-51 -47.5t-43 -66.5t-17.5 -86q0 -40 15 -67t47 -27q19 0 62 26t59 26q8 0 14 -6.5 t6 -14.5zM365 433q0 -23 -21 -43.5t-45 -20.5q-17 0 -28 10.5t-11 26.5q0 25 21 44.5t45 19.5q18 0 28.5 -10.5t10.5 -26.5z" />
<glyph unicode="&#xc0;" horiz-adv-x="524" d="M517 756l-23 -18l-165 124q6 21 21 36t35 15zM505 25h20q2 -4 2 -7q0 -9 -9 -18h-175q-8 12 7 25h25q32 2 32 25v280h-141l-147 -280q-3 -5 -3 -9q0 -16 30 -16h24q9 -9 -7 -25h-153q-2 4 -2 9q0 9 9 16h23q20 0 33 25l344 650h64v-650q3 -25 24 -25zM286 370h124v240z " />
<glyph unicode="&#xc1;" horiz-adv-x="524" d="M571 862l-189 -124l-13 18l165 157q18 0 28.5 -11t10.5 -27q0 -5 -2 -13zM505 25h20q2 -4 2 -7q0 -9 -9 -18h-175q-8 12 7 25h25q32 2 32 25v280h-141l-147 -280q-3 -5 -3 -9q0 -16 30 -16h24q9 -9 -7 -25h-153q-2 4 -2 9q0 9 9 16h23q20 0 33 25l344 650h64v-650 q3 -25 24 -25zM286 370h124v240z" />
<glyph unicode="&#xc2;" horiz-adv-x="524" d="M595 758l-23 -18l-92 102l-145 -102l-13 18l165 157q2 0 4.5 0.5t5.5 1.5t5 1l12 -3zM505 25h20q2 -4 2 -7q0 -9 -9 -18h-175q-8 12 7 25h25q32 2 32 25v280h-141l-147 -280q-3 -5 -3 -9q0 -16 30 -16h24q9 -9 -7 -25h-153q-2 4 -2 9q0 9 9 16h23q20 0 33 25l344 650h64 v-650q3 -25 24 -25zM286 370h124v240z" />
<glyph unicode="&#xc3;" horiz-adv-x="524" d="M620 851l-113 -62q-29 0 -54 21t-38 21q-16 0 -33 -13t-27 -30l-33 20l103 63q25 0 50 -21t42 -21q41 0 68 39zM505 25h20q2 -4 2 -7q0 -9 -9 -18h-175q-8 12 7 25h25q32 2 32 25v280h-141l-147 -280q-3 -5 -3 -9q0 -16 30 -16h24q9 -9 -7 -25h-153q-2 4 -2 9q0 9 9 16 h23q20 0 33 25l344 650h64v-650q3 -25 24 -25zM286 370h124v240z" />
<glyph unicode="&#xc4;" horiz-adv-x="524" d="M505 25h20q2 -4 2 -7q0 -9 -9 -18h-175q-8 12 7 25h25q32 2 32 25v280h-141l-147 -280q-3 -5 -3 -9q0 -16 30 -16h24q9 -9 -7 -25h-153q-2 4 -2 9q0 9 9 16h23q20 0 33 25l344 650h64v-650q3 -25 24 -25zM286 370h124v240zM450 829q0 -25 -21 -44.5t-45 -19.5 q-18 0 -28.5 10.5t-10.5 26.5q0 26 21.5 45t44.5 19q17 0 28 -10.5t11 -26.5zM618 829q0 -25 -21 -44.5t-45 -19.5q-18 0 -28.5 10.5t-10.5 26.5q0 26 21.5 45t44.5 19q17 0 28 -10.5t11 -26.5z" />
<glyph unicode="&#xc5;" horiz-adv-x="524" d="M563 843q0 -33 -30 -63.5t-68 -30.5q-25 0 -41.5 16t-16.5 40q0 37 32.5 65.5t66.5 28.5q25 0 41 -16t16 -40zM505 25h20q2 -4 2 -7q0 -9 -9 -18h-175q-8 12 7 25h25q32 2 32 25v280h-141l-147 -280q-3 -5 -3 -9q0 -16 30 -16h24q9 -9 -7 -25h-153q-2 4 -2 9q0 9 9 16h23 q20 0 33 25l344 650h64v-650q3 -25 24 -25zM472 774q24 0 45 19.5t21 44.5q0 16 -11 26.5t-28 10.5q-24 0 -45 -20.5t-21 -43.5q0 -16 10.5 -26.5t28.5 -10.5zM286 370h124v240z" />
<glyph unicode="&#xc7;" horiz-adv-x="605" d="M531 684q-48 0 -102.5 -32.5t-102 -88t-78.5 -140t-31 -177.5q0 -101 43.5 -166t138.5 -65q38 0 72 20.5t54 44.5t41.5 44.5t37.5 20.5q24 0 24 -23q0 -16 -22 -38t-58 -43t-88 -36t-104 -15l-40 -60q18 3 33 3q25 0 38 -17t13 -42q0 -51 -43.5 -87.5t-91.5 -36.5 q-25 0 -41.5 18.5t-18.5 42.5q24 -26 54 -26q27 0 50 24t23 52q0 16 -12 24t-25 9.5t-35 1.5h-4l62 97q-95 15 -145.5 84t-50.5 168q0 108 57.5 215t159 178.5t216.5 71.5q47 0 115 -26.5t68 -64.5q0 -16 -11 -26.5t-24 -10.5q-15 0 -29.5 16t-27.5 35t-43 35t-72 16z" />
<glyph unicode="&#xc8;" horiz-adv-x="522" d="M203 25q77 0 134 11t85 26.5t45.5 31.5t29.5 27t23 11q16 0 21 -18l-87 -114h-426q-2 2 -2 6v6q5 11 9 13q31 1 41.5 5t14.5 20l161 600q2 10 2 11q0 9 -8.5 11t-36.5 3q-2 6 -2 13q4 9 9 12h406l25 -114q-14 -18 -30 -18q-11 0 -17 11t-14.5 27t-26.5 31.5t-64.5 26.5 t-117.5 11h-16q-27 0 -34 -25l-75 -280h147q16 2 23 8.5t12 27.5l8 32q6 5 15 5q7 0 10 -5l-47 -175q-7 -5 -13 -5q-7 0 -12 5l10 36q3 14 3 20q0 12 -19 12h-147l-76 -281q-1 -4 -1 -11q0 -9 7.5 -11.5t30.5 -2.5zM539 756l-23 -18l-172 124q5 21 23.5 36t39.5 15z" />
<glyph unicode="&#xc9;" horiz-adv-x="522" d="M203 25q77 0 134 11t85 26.5t45.5 31.5t29.5 27t23 11q16 0 21 -18l-87 -114h-426q-2 2 -2 6v6q5 11 9 13q31 1 41.5 5t14.5 20l161 600q2 10 2 11q0 9 -8.5 11t-36.5 3q-2 6 -2 13q4 9 9 12h406l25 -114q-14 -18 -30 -18q-11 0 -17 11t-14.5 27t-26.5 31.5t-64.5 26.5 t-117.5 11h-16q-27 0 -34 -25l-75 -280h147q16 2 23 8.5t12 27.5l8 32q6 5 15 5q7 0 10 -5l-47 -175q-7 -5 -13 -5q-7 0 -12 5l10 36q3 14 3 20q0 12 -19 12h-147l-76 -281q-1 -4 -1 -11q0 -9 7.5 -11.5t30.5 -2.5zM570 862l-189 -124l-13 18l165 157q18 0 28.5 -11 t10.5 -27q0 -5 -2 -13z" />
<glyph unicode="&#xca;" horiz-adv-x="522" d="M203 25q77 0 134 11t85 26.5t45.5 31.5t29.5 27t23 11q16 0 21 -18l-87 -114h-426q-2 2 -2 6v6q5 11 9 13q31 1 41.5 5t14.5 20l161 600q2 10 2 11q0 9 -8.5 11t-36.5 3q-2 6 -2 13q4 9 9 12h406l25 -114q-14 -18 -30 -18q-11 0 -17 11t-14.5 27t-26.5 31.5t-64.5 26.5 t-117.5 11h-16q-27 0 -34 -25l-75 -280h147q16 2 23 8.5t12 27.5l8 32q6 5 15 5q7 0 10 -5l-47 -175q-7 -5 -13 -5q-7 0 -12 5l10 36q3 14 3 20q0 12 -19 12h-147l-76 -281q-1 -4 -1 -11q0 -9 7.5 -11.5t30.5 -2.5zM569 758l-23 -18l-92 102l-145 -102l-13 18l165 157l15 3 l12 -3z" />
<glyph unicode="&#xcb;" horiz-adv-x="522" d="M203 25q77 0 134 11t85 26.5t45.5 31.5t29.5 27t23 11q16 0 21 -18l-87 -114h-426q-2 2 -2 6v6q5 11 9 13q31 1 41.5 5t14.5 20l161 600q2 10 2 11q0 9 -8.5 11t-36.5 3q-2 6 -2 13q4 9 9 12h406l25 -114q-14 -18 -30 -18q-11 0 -17 11t-14.5 27t-26.5 31.5t-64.5 26.5 t-117.5 11h-16q-27 0 -34 -25l-75 -280h147q16 2 23 8.5t12 27.5l8 32q6 5 15 5q7 0 10 -5l-47 -175q-7 -5 -13 -5q-7 0 -12 5l10 36q3 14 3 20q0 12 -19 12h-147l-76 -281q-1 -4 -1 -11q0 -9 7.5 -11.5t30.5 -2.5zM415 814q0 -25 -21 -44.5t-45 -19.5q-18 0 -28.5 10.5 t-10.5 26.5q0 26 21.5 45t44.5 19q17 0 28 -10.5t11 -26.5zM583 814q0 -25 -21 -44.5t-45 -19.5q-18 0 -28.5 10.5t-10.5 26.5q0 26 21.5 45t44.5 19q17 0 28 -10.5t11 -26.5z" />
<glyph unicode="&#xcc;" horiz-adv-x="236" d="M393 693q0 -11 -9 -18q-50 0 -57 -25l-161 -600q-1 -2 -1 -7q0 -18 45 -18q4 -6 1.5 -13.5t-8.5 -11.5h-175q-2 6 -2 9q0 9 9 16q50 0 56 25l161 600q1 3 1 8q0 17 -44 17q-8 12 7 25h175q2 -4 2 -7zM441 756l-23 -18l-172 124q5 21 23.5 36t39.5 15z" />
<glyph unicode="&#xcd;" horiz-adv-x="236" d="M393 693q0 -11 -9 -18q-50 0 -57 -25l-161 -600q-1 -2 -1 -7q0 -18 45 -18q4 -6 1.5 -13.5t-8.5 -11.5h-175q-2 6 -2 9q0 9 9 16q50 0 56 25l161 600q1 3 1 8q0 17 -44 17q-8 12 7 25h175q2 -4 2 -7zM435 862l-189 -124l-13 18l165 157q18 0 28.5 -11t10.5 -27 q0 -5 -2 -13z" />
<glyph unicode="&#xce;" horiz-adv-x="236" d="M393 693q0 -11 -9 -18q-50 0 -57 -25l-161 -600q-1 -2 -1 -7q0 -18 45 -18q4 -6 1.5 -13.5t-8.5 -11.5h-175q-2 6 -2 9q0 9 9 16q50 0 56 25l161 600q1 3 1 8q0 17 -44 17q-8 12 7 25h175q2 -4 2 -7zM466 758l-23 -18l-92 102l-145 -102l-13 18l165 157l15 3l12 -3z" />
<glyph unicode="&#xcf;" horiz-adv-x="236" d="M393 693q0 -11 -9 -18q-50 0 -57 -25l-161 -600q-1 -2 -1 -7q0 -18 45 -18q4 -6 1.5 -13.5t-8.5 -11.5h-175q-2 6 -2 9q0 9 9 16q50 0 56 25l161 600q1 3 1 8q0 17 -44 17q-8 12 7 25h175q2 -4 2 -7zM301 814q0 -25 -21 -44.5t-45 -19.5q-18 0 -28.5 10.5t-10.5 26.5 q0 26 21.5 45t44.5 19q17 0 28 -10.5t11 -26.5zM469 814q0 -25 -21 -44.5t-45 -19.5q-18 0 -28.5 10.5t-10.5 26.5q0 26 21.5 45t44.5 19q17 0 28 -10.5t11 -26.5z" />
<glyph unicode="&#xd0;" horiz-adv-x="668" d="M335 15q69 0 140 60.5t120 167.5t49 227q0 96 -43.5 155t-141.5 59h-11q-80 0 -109 -34l-67 -250h120l-13 -50h-120l-81 -300v-2q0 -14 47 -23.5t72 -9.5h38zM298 -10q-11 0 -66 5q-35 5 -66 5h-126q-2 6 -2 8q0 8 9 17h31q20 4 25 25l81 300h-55l13 50h55l67 250 q2 8 2 11q0 14 -16 14h-29q-3 5 -1 12q0 7 8 13h124q6 0 61 5q35 5 70 5q118 0 183.5 -70t65.5 -181q0 -109 -58.5 -217t-160.5 -180t-215 -72z" />
<glyph unicode="&#xd1;" horiz-adv-x="531" d="M586 660q0 10 -30 13.5t-30 10.5t13 16h175q2 -4 2 -7q0 -11 -9 -18q-46 -1 -57.5 -5t-15.5 -20l-159 -594q-6 -24 -6 -36t4 -20h-64l-115 575l-141 -525q0 -1 -0.5 -2.5t-0.5 -2.5q0 -20 58 -20q4 -6 1.5 -13.5t-8.5 -11.5h-175q-2 6 -2 9q0 9 9 16q62 0 68 25l161 600 q1 3 1 8q0 10 -11.5 13t-44.5 4q-2 6 -2 13q5 9 9 12h125l107 -560l136 510q2 8 2 10zM641 851l-113 -62q-29 0 -54 21t-38 21q-16 0 -33 -13t-27 -30l-33 20l103 63q25 0 50 -21t42 -21q41 0 68 39z" />
<glyph unicode="&#xd2;" horiz-adv-x="732" d="M399 15q50 0 104.5 36t100 95.5t75 146.5t29.5 179q0 95 -43.5 153.5t-141.5 58.5q-46 0 -99.5 -34t-100 -90.5t-77 -141t-30.5 -174.5q0 -100 43.5 -164.5t139.5 -64.5zM796 458q0 -111 -60 -219.5t-161.5 -178.5t-212.5 -70q-115 0 -177 72.5t-62 183.5 q0 109 57.5 215.5t159 177.5t215.5 71q115 0 178 -71t63 -181zM681 756l-23 -18l-172 124q5 21 23.5 36t39.5 15z" />
<glyph unicode="&#xd3;" horiz-adv-x="732" d="M399 15q50 0 104.5 36t100 95.5t75 146.5t29.5 179q0 95 -43.5 153.5t-141.5 58.5q-46 0 -99.5 -34t-100 -90.5t-77 -141t-30.5 -174.5q0 -100 43.5 -164.5t139.5 -64.5zM796 458q0 -111 -60 -219.5t-161.5 -178.5t-212.5 -70q-115 0 -177 72.5t-62 183.5 q0 109 57.5 215.5t159 177.5t215.5 71q115 0 178 -71t63 -181zM682 862l-189 -124l-13 18l165 157q18 0 28.5 -11t10.5 -27q0 -5 -2 -13z" />
<glyph unicode="&#xd4;" horiz-adv-x="732" d="M399 15q50 0 104.5 36t100 95.5t75 146.5t29.5 179q0 95 -43.5 153.5t-141.5 58.5q-46 0 -99.5 -34t-100 -90.5t-77 -141t-30.5 -174.5q0 -100 43.5 -164.5t139.5 -64.5zM796 458q0 -111 -60 -219.5t-161.5 -178.5t-212.5 -70q-115 0 -177 72.5t-62 183.5 q0 109 57.5 215.5t159 177.5t215.5 71q115 0 178 -71t63 -181zM704 758l-23 -18l-92 102l-145 -102l-13 18l165 157l15 3l12 -3z" />
<glyph unicode="&#xd5;" horiz-adv-x="732" d="M399 15q50 0 104.5 36t100 95.5t75 146.5t29.5 179q0 95 -43.5 153.5t-141.5 58.5q-46 0 -99.5 -34t-100 -90.5t-77 -141t-30.5 -174.5q0 -100 43.5 -164.5t139.5 -64.5zM796 458q0 -111 -60 -219.5t-161.5 -178.5t-212.5 -70q-115 0 -177 72.5t-62 183.5 q0 109 57.5 215.5t159 177.5t215.5 71q115 0 178 -71t63 -181zM729 851l-113 -62q-29 0 -54 21t-38 21q-16 0 -33 -13t-27 -30l-33 20l103 63q25 0 50 -21t42 -21q41 0 68 39z" />
<glyph unicode="&#xd6;" horiz-adv-x="732" d="M399 15q50 0 104.5 36t100 95.5t75 146.5t29.5 179q0 95 -43.5 153.5t-141.5 58.5q-46 0 -99.5 -34t-100 -90.5t-77 -141t-30.5 -174.5q0 -100 43.5 -164.5t139.5 -64.5zM796 458q0 -111 -60 -219.5t-161.5 -178.5t-212.5 -70q-115 0 -177 72.5t-62 183.5 q0 109 57.5 215.5t159 177.5t215.5 71q115 0 178 -71t63 -181zM545 814q0 -25 -21 -44.5t-45 -19.5q-18 0 -28.5 10.5t-10.5 26.5q0 26 21.5 45t44.5 19q17 0 28 -10.5t11 -26.5zM713 814q0 -25 -21 -44.5t-45 -19.5q-18 0 -28.5 10.5t-10.5 26.5q0 26 21.5 45t44.5 19 q17 0 28 -10.5t11 -26.5z" />
<glyph unicode="&#xd7;" horiz-adv-x="544" d="M542 48l-42 -42l-172 172l-170 -172l-41 42l169 172l-170 170l41 42l171 -171l171 171l41 -42l-170 -170z" />
<glyph unicode="&#xd8;" horiz-adv-x="732" d="M531 684q-49 0 -104 -33.5t-102 -89.5t-77.5 -139t-30.5 -173q0 -94 37 -157q39 54 125.5 170t150.5 205.5t119 173.5q-49 43 -118 43zM399 15q70 0 141.5 62t120 169t48.5 223q0 79 -30 133q-50 -70 -187 -256t-208 -290q42 -41 115 -41zM796 460q0 -80 -35 -164.5 t-92.5 -152t-139 -110.5t-167.5 -43q-59 0 -108 23q-44 -68 -69 -113h-68l96 137q-91 70 -91 207q0 108 57.5 215.5t159 179t216.5 71.5q67 0 120 -27q26 44 38 67h67l-63 -95q79 -70 79 -195z" />
<glyph unicode="&#xd9;" horiz-adv-x="609" d="M786 693q0 -11 -9 -18h-26q-26 -4 -32 -30l-118 -439q-27 -98 -117 -157t-191 -59q-78 0 -131.5 42t-53.5 112q0 25 7 50l122 456q2 8 2 11q0 14 -22 14h-23q-4 5 -2 13t9 12h175q8 -12 -7 -25h-26q-24 -2 -31 -25l-118 -441q-8 -30 -8 -54q0 -62 39 -101t105 -39 q73 0 122.5 49.5t69.5 125.5l122 455q2 8 2 12q0 18 -21 18h-23q-4 7 -3 11q0 5 10 14h175q2 -4 2 -7zM619 756l-23 -18l-172 124q5 21 23.5 36t39.5 15z" />
<glyph unicode="&#xda;" horiz-adv-x="609" d="M786 693q0 -11 -9 -18h-26q-26 -4 -32 -30l-118 -439q-27 -98 -117 -157t-191 -59q-78 0 -131.5 42t-53.5 112q0 25 7 50l122 456q2 8 2 11q0 14 -22 14h-23q-4 5 -2 13t9 12h175q8 -12 -7 -25h-26q-24 -2 -31 -25l-118 -441q-8 -30 -8 -54q0 -62 39 -101t105 -39 q73 0 122.5 49.5t69.5 125.5l122 455q2 8 2 12q0 18 -21 18h-23q-4 7 -3 11q0 5 10 14h175q2 -4 2 -7zM622 862l-189 -124l-13 18l165 157q18 0 28.5 -11t10.5 -27q0 -5 -2 -13z" />
<glyph unicode="&#xdb;" horiz-adv-x="609" d="M786 693q0 -11 -9 -18h-26q-26 -4 -32 -30l-118 -439q-27 -98 -117 -157t-191 -59q-78 0 -131.5 42t-53.5 112q0 25 7 50l122 456q2 8 2 11q0 14 -22 14h-23q-4 5 -2 13t9 12h175q8 -12 -7 -25h-26q-24 -2 -31 -25l-118 -441q-8 -30 -8 -54q0 -62 39 -101t105 -39 q73 0 122.5 49.5t69.5 125.5l122 455q2 8 2 12q0 18 -21 18h-23q-4 7 -3 11q0 5 10 14h175q2 -4 2 -7zM644 758l-23 -18l-92 102l-145 -102l-13 18l165 157l15 3l12 -3z" />
<glyph unicode="&#xdc;" horiz-adv-x="609" d="M786 693q0 -11 -9 -18h-26q-26 -4 -32 -30l-118 -439q-27 -98 -117 -157t-191 -59q-78 0 -131.5 42t-53.5 112q0 25 7 50l122 456q2 8 2 11q0 14 -22 14h-23q-4 5 -2 13t9 12h175q8 -12 -7 -25h-26q-24 -2 -31 -25l-118 -441q-8 -30 -8 -54q0 -62 39 -101t105 -39 q73 0 122.5 49.5t69.5 125.5l122 455q2 8 2 12q0 18 -21 18h-23q-4 7 -3 11q0 5 10 14h175q2 -4 2 -7zM485 814q0 -25 -21 -44.5t-45 -19.5q-18 0 -28.5 10.5t-10.5 26.5q0 26 21.5 45t44.5 19q17 0 28 -10.5t11 -26.5zM653 814q0 -25 -21 -44.5t-45 -19.5q-18 0 -28.5 10.5 t-10.5 26.5q0 26 21.5 45t44.5 19q17 0 28 -10.5t11 -26.5z" />
<glyph unicode="&#xdd;" horiz-adv-x="570" d="M226 700h175q8 -12 -7 -25h-13q-34 0 -44 -25l76 -272l199 272q3 9 3 14q0 11 -23 11h-37q-10 14 7 25h175l1 -12q-4 -7 -8 -13h-35q-19 -3 -36 -25l-237 -318l-76 -282q-1 -2 -1 -7q0 -18 45 -18q4 -6 1.5 -13.5t-8.5 -11.5h-175q-2 6 -2 9q0 9 9 16q50 0 56 25l76 282 l-85 318q-6 25 -43 25q-9 14 7 25zM602 862l-189 -124l-13 18l165 157q18 0 28.5 -11t10.5 -27q0 -5 -2 -13z" />
<glyph unicode="&#xde;" horiz-adv-x="513" d="M335 166q51 0 94 49.5t64.5 116.5t21.5 129q0 113 -105 113q-25 0 -62 -22.5t-60 -47.5l-66 -247q10 -40 40 -65.5t73 -25.5zM586 439q0 -111 -84.5 -205t-191.5 -94q-51 0 -108 42l-36 -132q-1 -4 -1 -10q0 -16 21 -16q3 0 11.5 0.5t12.5 0.5q4 -6 1.5 -13.5t-8.5 -11.5 h-175l-2 12l9 13q4 0 12 -0.5t11 -0.5q27 0 33 26l161 600q2 8 2 11q0 15 -21 15q-3 0 -11.5 -0.5t-12.5 -0.5l-2 13l9 12h175q8 -12 -7 -25q-4 0 -12 0.5t-11 0.5q-27 0 -34 -26l-23 -88q72 38 129 38q73 0 113 -45.5t40 -115.5z" />
<glyph unicode="&#xdf;" horiz-adv-x="595" d="M343 297q0 46 26.5 77t64 49.5t75 36.5t64 51.5t26.5 81.5q0 43 -40.5 75t-85.5 32q-62 0 -111 -43.5t-66 -106.5l-171 -640q-14 -52 -64.5 -94.5t-103.5 -65.5q66 60 93 160l138 515h-54l63 35q26 88 125 189t182 101q140 0 140 -111q0 -53 -23 -95t-56 -67.5t-66 -47 t-56 -45.5t-23 -52t31 -47t67.5 -29.5t67.5 -35.5t31 -62q0 -25 -10 -50.5t-33 -53.5t-73 -46t-119 -18q-129 0 -129 46q0 16 13 30t29 14q19 0 53 -32.5t56 -32.5q64 0 100.5 33t36.5 68q0 23 -20.5 40t-49.5 29t-58 25t-49.5 35t-20.5 52z" />
<glyph unicode="&#xe0;" horiz-adv-x="526" d="M364 424q-62 0 -127.5 -85.5t-65.5 -208.5q0 -114 99 -114q41 0 77.5 22t47.5 62l73 275q-39 49 -104 49zM87 154q0 69 37.5 137t103.5 113.5t140 45.5q28 0 60 -15t47 -35l13 48h75l-107 -398q-2 -8 -2 -12q0 -21 19 -21q11 0 27 8q-24 -35 -77 -35q-21 0 -29.5 6.5 t-11 16t-6.5 11.5q-67 -34 -132 -34q-74 0 -115.5 46.5t-41.5 117.5zM508 516l-23 -18l-172 124q5 21 23.5 36t39.5 15z" />
<glyph unicode="&#xe1;" horiz-adv-x="526" d="M364 424q-62 0 -127.5 -85.5t-65.5 -208.5q0 -114 99 -114q41 0 77.5 22t47.5 62l73 275q-39 49 -104 49zM87 154q0 69 37.5 137t103.5 113.5t140 45.5q28 0 60 -15t47 -35l13 48h75l-107 -398q-2 -8 -2 -12q0 -21 19 -21q11 0 27 8q-24 -35 -77 -35q-21 0 -29.5 6.5 t-11 16t-6.5 11.5q-67 -34 -132 -34q-74 0 -115.5 46.5t-41.5 117.5zM509 622l-189 -124l-13 18l165 157q18 0 28.5 -11t10.5 -27q0 -5 -2 -13z" />
<glyph unicode="&#xe2;" horiz-adv-x="526" d="M364 424q-62 0 -127.5 -85.5t-65.5 -208.5q0 -114 99 -114q41 0 77.5 22t47.5 62l73 275q-39 49 -104 49zM87 154q0 69 37.5 137t103.5 113.5t140 45.5q28 0 60 -15t47 -35l13 48h75l-107 -398q-2 -8 -2 -12q0 -21 19 -21q11 0 27 8q-24 -35 -77 -35q-21 0 -29.5 6.5 t-11 16t-6.5 11.5q-67 -34 -132 -34q-74 0 -115.5 46.5t-41.5 117.5zM535 518l-23 -18l-92 102l-145 -102l-13 18l165 157q2 0 4.5 0.5t5.5 1.5t5 1l12 -3z" />
<glyph unicode="&#xe3;" horiz-adv-x="526" d="M364 424q-62 0 -127.5 -85.5t-65.5 -208.5q0 -114 99 -114q41 0 77.5 22t47.5 62l73 275q-39 49 -104 49zM87 154q0 69 37.5 137t103.5 113.5t140 45.5q28 0 60 -15t47 -35l13 48h75l-107 -398q-2 -8 -2 -12q0 -21 19 -21q11 0 27 8q-24 -35 -77 -35q-21 0 -29.5 6.5 t-11 16t-6.5 11.5q-67 -34 -132 -34q-74 0 -115.5 46.5t-41.5 117.5zM361 631q27 0 50 -21q27 -21 42 -21q41 0 68 39l35 -17l-113 -62q-29 0 -54 21t-38 21q-16 0 -33 -13t-27 -30l-33 20z" />
<glyph unicode="&#xe4;" horiz-adv-x="526" d="M364 424q-62 0 -127.5 -85.5t-65.5 -208.5q0 -114 99 -114q41 0 77.5 22t47.5 62l73 275q-39 49 -104 49zM87 154q0 69 37.5 137t103.5 113.5t140 45.5q28 0 60 -15t47 -35l13 48h75l-107 -398q-2 -8 -2 -12q0 -21 19 -21q11 0 27 8q-24 -35 -77 -35q-21 0 -29.5 6.5 t-11 16t-6.5 11.5q-67 -34 -132 -34q-74 0 -115.5 46.5t-41.5 117.5zM383 589q0 -25 -21 -44.5t-45 -19.5q-18 0 -28.5 10.5t-10.5 26.5q0 26 21.5 45t44.5 19q17 0 28 -10.5t11 -26.5zM551 589q0 -25 -21 -44.5t-45 -19.5q-18 0 -28.5 10.5t-10.5 26.5q0 26 21.5 45 t44.5 19q17 0 28 -10.5t11 -26.5z" />
<glyph unicode="&#xe5;" horiz-adv-x="526" d="M364 424q-62 0 -127.5 -85.5t-65.5 -208.5q0 -114 99 -114q41 0 77.5 22t47.5 62l73 275q-39 49 -104 49zM87 154q0 69 37.5 137t103.5 113.5t140 45.5q28 0 60 -15t47 -35l13 48h75l-107 -398q-2 -8 -2 -12q0 -21 19 -21q11 0 27 8q-24 -35 -77 -35q-21 0 -29.5 6.5 t-11 16t-6.5 11.5q-67 -34 -132 -34q-74 0 -115.5 46.5t-41.5 117.5zM398 534q24 0 45 19.5t21 44.5q0 16 -11 26.5t-28 10.5q-24 0 -45 -20.5t-21 -43.5q0 -16 10.5 -26.5t28.5 -10.5zM489 603q0 -33 -30 -63.5t-68 -30.5q-25 0 -41.5 16t-16.5 40q0 37 32.5 65.5 t66.5 28.5q25 0 41 -16t16 -40z" />
<glyph unicode="&#xe7;" horiz-adv-x="416" d="M347 424q-47 0 -88 -47.5t-63.5 -114.5t-22.5 -130q0 -117 99 -117q56 0 122 59l16 -18q-71 -66 -168 -66l-39 -60q18 3 34 3q25 0 37.5 -16.5t12.5 -42.5q0 -47 -42 -85.5t-93 -38.5q-25 0 -41.5 18.5t-18.5 42.5q24 -26 54 -26q26 0 49.5 24t23.5 52q0 16 -12 24 t-25 9.5t-35 1.5h-4l63 98q-56 13 -86.5 57t-30.5 104q0 106 85 200.5t196 94.5q21 0 46.5 -3t53 -15t27.5 -31q0 -15 -13.5 -26.5t-26.5 -11.5q-19 0 -54 30.5t-56 30.5z" />
<glyph unicode="&#xe8;" d="M185 236q31 0 69 6t80.5 19.5t70.5 40t28 62.5q0 29 -25.5 44.5t-61.5 15.5q-29 0 -55 -16.5t-43 -39.5t-31 -51t-20.5 -46t-10.5 -31q-1 -3 -1 -4zM515 357q0 -47 -42 -80t-105.5 -47t-108.5 -19t-78 -5q-9 -34 -9 -70q0 -53 24 -86.5t75 -33.5q32 0 69.5 16.5 t62.5 41.5l17 -20q-73 -64 -175 -64q-74 0 -115.5 46.5t-41.5 117.5q0 107 85 201.5t196 94.5q55 0 100.5 -23.5t45.5 -69.5zM503 516l-23 -18l-172 124q5 21 23.5 36t39.5 15z" />
<glyph unicode="&#xe9;" d="M185 236q31 0 69 6t80.5 19.5t70.5 40t28 62.5q0 29 -25.5 44.5t-61.5 15.5q-29 0 -55 -16.5t-43 -39.5t-31 -51t-20.5 -46t-10.5 -31q-1 -3 -1 -4zM515 357q0 -47 -42 -80t-105.5 -47t-108.5 -19t-78 -5q-9 -34 -9 -70q0 -53 24 -86.5t75 -33.5q32 0 69.5 16.5 t62.5 41.5l17 -20q-73 -64 -175 -64q-74 0 -115.5 46.5t-41.5 117.5q0 107 85 201.5t196 94.5q55 0 100.5 -23.5t45.5 -69.5zM490 622l-189 -124l-13 18l165 157q18 0 28.5 -11t10.5 -27q0 -5 -2 -13z" />
<glyph unicode="&#xea;" d="M185 236q31 0 69 6t80.5 19.5t70.5 40t28 62.5q0 29 -25.5 44.5t-61.5 15.5q-29 0 -55 -16.5t-43 -39.5t-31 -51t-20.5 -46t-10.5 -31q-1 -3 -1 -4zM515 357q0 -47 -42 -80t-105.5 -47t-108.5 -19t-78 -5q-9 -34 -9 -70q0 -53 24 -86.5t75 -33.5q32 0 69.5 16.5 t62.5 41.5l17 -20q-73 -64 -175 -64q-74 0 -115.5 46.5t-41.5 117.5q0 107 85 201.5t196 94.5q55 0 100.5 -23.5t45.5 -69.5zM530 518l-23 -18l-92 102l-145 -102l-13 18l165 157q2 0 4.5 0.5t5.5 1.5t5 1l12 -3z" />
<glyph unicode="&#xeb;" d="M185 236q31 0 69 6t80.5 19.5t70.5 40t28 62.5q0 29 -25.5 44.5t-61.5 15.5q-29 0 -55 -16.5t-43 -39.5t-31 -51t-20.5 -46t-10.5 -31q-1 -3 -1 -4zM515 357q0 -47 -42 -80t-105.5 -47t-108.5 -19t-78 -5q-9 -34 -9 -70q0 -53 24 -86.5t75 -33.5q32 0 69.5 16.5 t62.5 41.5l17 -20q-73 -64 -175 -64q-74 0 -115.5 46.5t-41.5 117.5q0 107 85 201.5t196 94.5q55 0 100.5 -23.5t45.5 -69.5zM366 589q0 -25 -21 -44.5t-45 -19.5q-18 0 -28.5 10.5t-10.5 26.5q0 26 21.5 45t44.5 19q17 0 28 -10.5t11 -26.5zM534 589q0 -25 -21 -44.5 t-45 -19.5q-18 0 -28.5 10.5t-10.5 26.5q0 26 21.5 45t44.5 19q17 0 28 -10.5t11 -26.5z" />
<glyph unicode="&#xec;" horiz-adv-x="239" d="M219 40q-12 -23 -36 -36.5t-48 -13.5q-19 0 -31 9.5t-12 25.5q0 5 2 15l83 310l-37 50q27 0 75.5 25t73.5 25q-16 -24 -24 -50l-90 -335q-3 -18 -3 -20q0 -21 15 -21q11 0 32 16zM375 516l-23 -18l-172 124q5 21 23.5 36t39.5 15z" />
<glyph unicode="&#xed;" horiz-adv-x="239" d="M219 40q-12 -23 -36 -36.5t-48 -13.5q-19 0 -31 9.5t-12 25.5q0 5 2 15l83 310l-37 50q27 0 75.5 25t73.5 25q-16 -24 -24 -50l-90 -335q-3 -18 -3 -20q0 -21 15 -21q11 0 32 16zM378 622l-189 -124l-13 18l165 157q18 0 28.5 -11t10.5 -27q0 -5 -2 -13z" />
<glyph unicode="&#xee;" horiz-adv-x="239" d="M219 40q-12 -23 -36 -36.5t-48 -13.5q-19 0 -31 9.5t-12 25.5q0 5 2 15l83 310l-37 50q27 0 75.5 25t73.5 25q-16 -24 -24 -50l-90 -335q-3 -18 -3 -20q0 -21 15 -21q11 0 32 16zM398 518l-23 -18l-92 102l-145 -102l-13 18l165 157l15 3l12 -3z" />
<glyph unicode="&#xef;" horiz-adv-x="239" d="M219 40q-12 -23 -36 -36.5t-48 -13.5q-19 0 -31 9.5t-12 25.5q0 5 2 15l83 310l-37 50q27 0 75.5 25t73.5 25q-16 -24 -24 -50l-90 -335q-3 -18 -3 -20q0 -21 15 -21q11 0 32 16zM243 589q0 -25 -21 -44.5t-45 -19.5q-18 0 -28.5 10.5t-10.5 26.5q0 26 21.5 45t44.5 19 q17 0 28 -10.5t11 -26.5zM411 589q0 -25 -21 -44.5t-45 -19.5q-18 0 -28.5 10.5t-10.5 26.5q0 26 21.5 45t44.5 19q17 0 28 -10.5t11 -26.5z" />
<glyph unicode="&#xf0;" d="M271 16q42 0 77.5 33t56 82t31.5 97.5t11 86.5q0 109 -101 109q-48 0 -89.5 -48.5t-63 -115.5t-21.5 -128q0 -116 99 -116zM529 314q0 -141 -89.5 -232.5t-194.5 -91.5q-74 0 -115.5 46.5t-41.5 117.5q0 69 37.5 137t103.5 113.5t140 45.5q51 0 88 -25q-32 102 -64 168 l-131 -63l15 56l95 46q-30 52 -61 80l60 38q26 -42 54 -92l108 52l-15 -56l-73 -36q84 -179 84 -304z" />
<glyph unicode="&#xf1;" horiz-adv-x="505" d="M486 40q-12 -23 -36 -36.5t-48 -13.5q-19 0 -31 9.5t-12 25.5q0 5 2 15l69 260q9 29 9 54q0 46 -38 46q-48 0 -156 -85l-84 -315l-78 -10l97 360l-37 50q25 0 74.5 25t74.5 25q-15 -20 -24 -50l-20 -75q34 37 55.5 57.5t60 44t69.5 23.5q40 0 62 -24t22 -62q0 -23 -5 -39 l-70 -260q-3 -18 -3 -20q0 -21 15 -21q11 0 32 16zM347 631q27 0 50 -21q27 -21 42 -21q41 0 68 39l35 -17l-113 -62q-29 0 -54 21t-38 21q-16 0 -33 -13t-27 -30l-33 20z" />
<glyph unicode="&#xf2;" d="M271 16q42 0 77.5 33t56 82t31.5 97.5t11 86.5q0 109 -101 109q-48 0 -89.5 -48.5t-63 -115.5t-21.5 -128q0 -116 99 -116zM526 286q0 -107 -85 -201.5t-196 -94.5q-74 0 -115.5 46.5t-41.5 117.5q0 107 85 201.5t196 94.5q74 0 115.5 -46.5t41.5 -117.5zM494 516 l-23 -18l-172 124q5 21 23.5 36t39.5 15z" />
<glyph unicode="&#xf3;" d="M271 16q42 0 77.5 33t56 82t31.5 97.5t11 86.5q0 109 -101 109q-48 0 -89.5 -48.5t-63 -115.5t-21.5 -128q0 -116 99 -116zM526 286q0 -107 -85 -201.5t-196 -94.5q-74 0 -115.5 46.5t-41.5 117.5q0 107 85 201.5t196 94.5q74 0 115.5 -46.5t41.5 -117.5zM504 622 l-189 -124l-13 18l165 157q18 0 28.5 -11t10.5 -27q0 -5 -2 -13z" />
<glyph unicode="&#xf4;" d="M271 16q42 0 77.5 33t56 82t31.5 97.5t11 86.5q0 109 -101 109q-48 0 -89.5 -48.5t-63 -115.5t-21.5 -128q0 -116 99 -116zM526 286q0 -107 -85 -201.5t-196 -94.5q-74 0 -115.5 46.5t-41.5 117.5q0 107 85 201.5t196 94.5q74 0 115.5 -46.5t41.5 -117.5zM524 518 l-23 -18l-92 102l-145 -102l-13 18l165 157l15 3l12 -3z" />
<glyph unicode="&#xf5;" d="M271 16q42 0 77.5 33t56 82t31.5 97.5t11 86.5q0 109 -101 109q-48 0 -89.5 -48.5t-63 -115.5t-21.5 -128q0 -116 99 -116zM526 286q0 -107 -85 -201.5t-196 -94.5q-74 0 -115.5 46.5t-41.5 117.5q0 107 85 201.5t196 94.5q74 0 115.5 -46.5t41.5 -117.5zM360 631 q27 0 50 -21q27 -21 42 -21q41 0 68 39l35 -17l-113 -62q-29 0 -54 21t-38 21q-16 0 -33 -13t-27 -30l-33 20z" />
<glyph unicode="&#xf6;" d="M271 16q42 0 77.5 33t56 82t31.5 97.5t11 86.5q0 109 -101 109q-48 0 -89.5 -48.5t-63 -115.5t-21.5 -128q0 -116 99 -116zM526 286q0 -107 -85 -201.5t-196 -94.5q-74 0 -115.5 46.5t-41.5 117.5q0 107 85 201.5t196 94.5q74 0 115.5 -46.5t41.5 -117.5zM372 589 q0 -25 -21 -44.5t-45 -19.5q-18 0 -28.5 10.5t-10.5 26.5q0 26 21.5 45t44.5 19q17 0 28 -10.5t11 -26.5zM540 589q0 -25 -21 -44.5t-45 -19.5q-18 0 -28.5 10.5t-10.5 26.5q0 26 21.5 45t44.5 19q17 0 28 -10.5t11 -26.5z" />
<glyph unicode="&#xf7;" horiz-adv-x="482" d="M362 392q0 -25 -16.5 -41t-41.5 -16q-24 0 -41 16t-17 39q0 27 18 43.5t40 16.5q24 0 41 -17t17 -41zM516 191h-438v57h438v-57zM247 45v4q0 23 17 39.5t40 16.5q24 0 41.5 -17t17.5 -41t-17.5 -40.5t-42.5 -16.5q-23 0 -39.5 16t-16.5 39z" />
<glyph unicode="&#xf8;" d="M346 424q-47 0 -88 -47.5t-63.5 -115t-22.5 -131.5q0 -43 14 -71q121 193 213 355q-24 10 -53 10zM271 15q43 0 78.5 35t56 85.5t31.5 99.5t11 85q0 38 -13 64l-215 -357q22 -12 51 -12zM526 284q0 -68 -38 -136t-104 -113t-139 -45q-22 0 -43 6l-71 -126h-68l95 146 q-69 45 -69 142q0 67 37.5 134t103.5 112.5t139 45.5q25 0 47 -6l80 146h67l-103 -166q66 -48 66 -140z" />
<glyph unicode="&#xf9;" horiz-adv-x="497" d="M477 40q-12 -23 -36 -36.5t-48 -13.5q-43 0 -43 38q0 12 3.5 26.5t10 34t8.5 26.5q-29 -30 -42 -42.5t-41 -37t-53 -35t-49 -10.5q-40 0 -62 24t-22 62q0 23 5 39l63 235l-37 50h3q23 0 72 25t74 25q-15 -20 -24 -50l-69 -260q-9 -29 -9 -54q0 -46 38 -46q49 0 155 85 l85 315l78 10l-104 -385q-3 -18 -3 -20q0 -21 15 -21q11 0 32 16zM497 516l-23 -18l-172 124q5 21 23.5 36t39.5 15z" />
<glyph unicode="&#xfa;" horiz-adv-x="497" d="M477 40q-12 -23 -36 -36.5t-48 -13.5q-43 0 -43 38q0 12 3.5 26.5t10 34t8.5 26.5q-29 -30 -42 -42.5t-41 -37t-53 -35t-49 -10.5q-40 0 -62 24t-22 62q0 23 5 39l63 235l-37 50h3q23 0 72 25t74 25q-15 -20 -24 -50l-69 -260q-9 -29 -9 -54q0 -46 38 -46q49 0 155 85 l85 315l78 10l-104 -385q-3 -18 -3 -20q0 -21 15 -21q11 0 32 16zM501 622l-189 -124l-13 18l165 157q18 0 28.5 -11t10.5 -27q0 -5 -2 -13z" />
<glyph unicode="&#xfb;" horiz-adv-x="497" d="M477 40q-12 -23 -36 -36.5t-48 -13.5q-43 0 -43 38q0 12 3.5 26.5t10 34t8.5 26.5q-29 -30 -42 -42.5t-41 -37t-53 -35t-49 -10.5q-40 0 -62 24t-22 62q0 23 5 39l63 235l-37 50h3q23 0 72 25t74 25q-15 -20 -24 -50l-69 -260q-9 -29 -9 -54q0 -46 38 -46q49 0 155 85 l85 315l78 10l-104 -385q-3 -18 -3 -20q0 -21 15 -21q11 0 32 16zM522 518l-23 -18l-92 102l-145 -102l-13 18l165 157q2 0 4.5 0.5t5.5 1.5t5 1l12 -3z" />
<glyph unicode="&#xfc;" horiz-adv-x="497" d="M477 40q-12 -23 -36 -36.5t-48 -13.5q-43 0 -43 38q0 12 3.5 26.5t10 34t8.5 26.5q-29 -30 -42 -42.5t-41 -37t-53 -35t-49 -10.5q-40 0 -62 24t-22 62q0 23 5 39l63 235l-37 50h3q23 0 72 25t74 25q-15 -20 -24 -50l-69 -260q-9 -29 -9 -54q0 -46 38 -46q49 0 155 85 l85 315l78 10l-104 -385q-3 -18 -3 -20q0 -21 15 -21q11 0 32 16zM369 589q0 -25 -21 -44.5t-45 -19.5q-18 0 -28.5 10.5t-10.5 26.5q0 26 21.5 45t44.5 19q17 0 28 -10.5t11 -26.5zM537 589q0 -25 -21 -44.5t-45 -19.5q-18 0 -28.5 10.5t-10.5 26.5q0 26 21.5 45t44.5 19 q17 0 28 -10.5t11 -26.5z" />
<glyph unicode="&#xfd;" horiz-adv-x="439" d="M457 622l-189 -124l-13 18l165 157q18 0 28.5 -11t10.5 -27q0 -5 -2 -13zM477 400q0 -62 -43.5 -171t-107 -215.5t-147.5 -185t-155 -78.5q-128 0 -128 47q0 16 12.5 29.5t31.5 13.5q16 0 51 -32.5t55 -32.5q11 0 26.5 9t34 27t34 35.5t35.5 43t30.5 39.5t26.5 37l16 22 l-97 437l-65 -10l-1 13q56 17 63 22h15q65 0 76 -50l72 -335q35 54 76 136t41 115q0 21 -12 51.5t-12 42.5q0 18 14 29t31 11q27 0 27 -50z" />
<glyph unicode="&#xfe;" horiz-adv-x="531" d="M261 15q56 0 100 36t66 86t33 91.5t11 64.5q0 52 -21.5 91.5t-62.5 39.5q-66 0 -132 -49l-73 -275q-3 -12 -3 -22q0 -30 23.5 -46.5t58.5 -16.5zM554 286q0 -107 -85 -201.5t-196 -94.5q-34 0 -65.5 14.5t-33.5 14.5q-14 0 -18 -15l-65 -244l-78 -10l241 900l-36 50 q21 1 71.5 25.5t76.5 24.5q-17 -25 -23 -50l-81 -300q25 20 65.5 35t69.5 15q74 0 115.5 -46.5t41.5 -117.5z" />
<glyph unicode="&#xff;" horiz-adv-x="439" d="M323 589q0 -25 -21 -44.5t-45 -19.5q-18 0 -28.5 10.5t-10.5 26.5q0 26 21.5 45t44.5 19q17 0 28 -10.5t11 -26.5zM491 589q0 -25 -21 -44.5t-45 -19.5q-18 0 -28.5 10.5t-10.5 26.5q0 26 21.5 45t44.5 19q17 0 28 -10.5t11 -26.5zM477 400q0 -62 -43.5 -171t-107 -215.5 t-147.5 -185t-155 -78.5q-128 0 -128 47q0 16 12.5 29.5t31.5 13.5q16 0 51 -32.5t55 -32.5q11 0 26.5 9t34 27t34 35.5t35.5 43t30.5 39.5t26.5 37l16 22l-97 437l-65 -10l-1 13q56 17 63 22h15q65 0 76 -50l72 -335q35 54 76 136t41 115q0 21 -12 51.5t-12 42.5 q0 18 14 29t31 11q27 0 27 -50z" />
<glyph unicode="&#x131;" horiz-adv-x="239" d="M219 40q-12 -23 -36 -36.5t-48 -13.5q-19 0 -31 9.5t-12 25.5q0 5 2 15l83 310l-37 50q27 0 75.5 25t73.5 25q-16 -24 -24 -50l-90 -335q-3 -18 -3 -20q0 -21 15 -21q11 0 32 16z" />
<glyph unicode="&#x141;" horiz-adv-x="526" d="M213 25q77 0 134 11t85 26.5t45.5 31.5t29.5 27t23 11q16 0 21 -18l-87 -114h-426l-2 12q1 3 9 13q4 0 12.5 -0.5t11.5 -0.5q26 0 32 26l75 280l-63 -30l14 50l63 30l72 270q2 10 2 12q0 13 -16 13h-29q-3 8 -2 12q0 4 9 13h175q8 -12 -7 -25h-31q-20 -3 -26 -25 l-61 -230l63 30l-14 -50l-63 -30l-86 -320q-2 -8 -2 -11q0 -14 22 -14h17z" />
<glyph unicode="&#x142;" horiz-adv-x="239" d="M320 400l-63 -30l-82 -305q-3 -18 -3 -20q0 -21 15 -21q11 0 32 16q-12 -23 -36 -36.5t-48 -13.5q-19 0 -31 9.5t-12 25.5q0 5 2 15l77 290l-63 -30l14 50l63 30l72 270l-36 50q24 0 73.5 25t74.5 25q-18 -29 -23 -50l-75 -280l63 30z" />
<glyph unicode="&#x160;" horiz-adv-x="532" d="M190 505q0 22 5.5 45.5t23.5 53.5t47 52.5t82.5 38t122.5 15.5q47 0 115 -26.5t68 -64.5q0 -16 -11 -26.5t-24 -10.5q-14 0 -24.5 10.5t-20.5 25.5t-24.5 30t-42.5 25.5t-68 10.5q-58 0 -114.5 -46t-56.5 -105q0 -32 21.5 -59.5t53.5 -46t69 -41t69 -43.5t53.5 -54.5 t21.5 -74.5q0 -29 -8.5 -57.5t-30.5 -59.5t-54.5 -54t-86.5 -38t-122 -15q-91 0 -144.5 40.5t-53.5 74.5q0 17 12.5 28.5t27.5 11.5q16 0 27 -20.5t17.5 -44.5t29.5 -44.5t61 -20.5q97 0 169 48t72 126q0 34 -21 63t-52 48t-68 41t-68 42t-52 52t-21 70zM647 900l-165 -157 l-14 -3q-12 3 -13 3l-81 157l23 18l90 -102l147 102z" />
<glyph unicode="&#x161;" horiz-adv-x="407" d="M403 148q0 -28 -9 -52t-31.5 -50t-71.5 -41t-120 -15q-129 0 -129 46q0 15 13.5 29.5t28.5 14.5q18 0 53 -32.5t56 -32.5q63 0 100 32.5t37 68.5q0 23 -20 41t-48.5 31t-57.5 27.5t-49 37.5t-20 53q0 54 48.5 99t155.5 45q15 0 31.5 -1.5t38.5 -5.5t36.5 -13.5 t14.5 -23.5q0 -15 -14.5 -29.5t-27.5 -14.5q-17 0 -49 31t-53 31q-44 0 -75.5 -28t-31.5 -64q0 -28 30.5 -49t66.5 -33t66.5 -38t30.5 -64zM510 660l-165 -157l-14 -3q-12 3 -13 3l-81 157l23 18l90 -102l147 102z" />
<glyph unicode="&#x178;" horiz-adv-x="570" d="M226 700h175q8 -12 -7 -25h-13q-34 0 -44 -25l76 -272l199 272q3 9 3 14q0 11 -23 11h-37q-10 14 7 25h175l1 -12q-4 -7 -8 -13h-35q-19 -3 -36 -25l-237 -318l-76 -282q-1 -2 -1 -7q0 -18 45 -18q4 -6 1.5 -13.5t-8.5 -11.5h-175q-2 6 -2 9q0 9 9 16q50 0 56 25l76 282 l-85 318q-6 25 -43 25q-9 14 7 25zM468 814q0 -25 -21 -44.5t-45 -19.5q-18 0 -28.5 10.5t-10.5 26.5q0 26 21.5 45t44.5 19q17 0 28 -10.5t11 -26.5zM636 814q0 -25 -21 -44.5t-45 -19.5q-18 0 -28.5 10.5t-10.5 26.5q0 26 21.5 45t44.5 19q17 0 28 -10.5t11 -26.5z" />
<glyph unicode="&#x17d;" horiz-adv-x="522" d="M203 25q77 0 134 11t85 26.5t45.5 31.5t29.5 27t23 11q16 0 21 -18l-87 -114h-426l-2 12l9 13q33 2 59 33l481 592q1 4 1 10q0 15 -24 15h-16q-76 0 -132 -11t-83.5 -26.5t-45 -31.5t-29 -27t-23.5 -11q-16 0 -20 18l87 114h392l1 -12q-11 -21 -141 -179.5t-254 -309.5 t-124 -160q0 -14 22 -14h17zM672 900l-165 -157l-14 -3q-12 3 -13 3l-81 157l23 18l90 -102l147 102z" />
<glyph unicode="&#x17e;" horiz-adv-x="407" d="M413 65q0 -11 -6.5 -21.5t-22.5 -20.5t-49.5 -16.5t-80.5 -6.5h-212q15 53 54.5 102t86 86t92 72t82.5 74.5t49 79.5h-100q-37 0 -74 -30.5t-59 -30.5l-23 17l66 70h271q-14 -52 -53 -101t-85 -87t-92 -73.5t-82.5 -75t-47.5 -78.5h119q22 0 73 32.5t70 32.5q24 0 24 -25 zM525 660l-165 -157l-14 -3q-12 3 -13 3l-81 157l23 18l90 -102l147 102z" />
<glyph unicode="&#x17f;" horiz-adv-x="259" d="M588 710q0 -15 -10 -25t-18.5 -12t-14.5 -2q-17 0 -26.5 14.5t-33.5 14.5q-63 0 -111.5 -43t-65.5 -107l-134 -500q-15 -55 -59 -97t-94 -63q11 9 19.5 17t15.5 19t11 17.5t9 22.5t7 22.5t7.5 29t8.5 32.5l101 375h-54l63 35q26 88 125 189t182 101q72 0 72 -40z" />
<glyph unicode="&#x192;" horiz-adv-x="259" d="M578 669q0 -16 -11 -25.5t-19.5 -11t-13.5 -1.5q-17 0 -26 14.5t-34 14.5q-62 0 -110.5 -43t-65.5 -107l-16 -60h82l-25 -25h-64l-101 -375q-7 -27 -24 -46.5t-36 -30t-45.5 -32.5t-47.5 -51q9 33 36.5 70t41.5 90l101 375h-54l25 25h36l2 10q23 84 116.5 167t179.5 83 q73 0 73 -41z" />
<glyph unicode="&#x2c6;" horiz-adv-x="349" d="M450 518l-23 -18l-92 102l-145 -102l-13 18l165 157q2 0 4.5 0.5t5.5 1.5t5 1l12 -3z" />
<glyph unicode="&#x2c7;" horiz-adv-x="349" d="M488 660l-165 -157l-14 -3q-12 3 -13 3l-81 157l23 18l90 -102l147 102z" />
<glyph unicode="&#x2d8;" horiz-adv-x="349" d="M488 660q-17 -56 -75.5 -108t-112.5 -52q-39 0 -63.5 41.5t-24.5 89.5q0 15 3 28l20 10q23 -106 82 -106q48 0 84.5 27.5t70.5 78.5z" />
<glyph unicode="&#x2d9;" horiz-adv-x="239" d="M338 634q0 -25 -22.5 -43.5t-44.5 -18.5q-17 0 -27.5 10t-10.5 26q0 25 20.5 45t44.5 20q18 0 29 -11t11 -28z" />
<glyph unicode="&#x2da;" horiz-adv-x="349" d="M317 534q24 0 45 19.5t21 44.5q0 16 -11 26.5t-28 10.5q-24 0 -45 -20.5t-21 -43.5q0 -16 10.5 -26.5t28.5 -10.5zM408 603q0 -33 -30 -63.5t-68 -30.5q-25 0 -41.5 16t-16.5 40q0 37 32.5 65.5t66.5 28.5q25 0 41 -16t16 -40z" />
<glyph unicode="&#x2db;" horiz-adv-x="258" d="M170 10q-27 -18 -57.5 -56t-30.5 -62q0 -27 27 -27q30 0 89 42q-23 -35 -56.5 -63.5t-65.5 -28.5q-26 0 -40.5 15.5t-14.5 39.5q0 37 35.5 78t67.5 62h46z" />
<glyph unicode="&#x2dc;" horiz-adv-x="388" d="M303 631q27 0 50 -21q27 -21 42 -21q41 0 68 39l35 -17l-113 -62q-29 0 -54 21t-38 21q-16 0 -33 -13t-27 -30l-33 20z" />
<glyph unicode="&#x2dd;" horiz-adv-x="373" d="M392 622l-189 -124l-13 18l165 157q18 0 28.5 -11t10.5 -27q0 -5 -2 -13zM538 622l-189 -124l-13 18l165 157q18 0 28.5 -11t10.5 -27q0 -5 -2 -13z" />
<glyph unicode="&#x3c0;" horiz-adv-x="548" d="M134 15q0 4 12.5 24.5t30 54.5t34.5 76t29.5 99.5t12.5 114.5h-27q-92 0 -126 -34q1 2 12.5 17.5t16 20.5t16 18t21.5 18.5t24.5 13t31.5 10.5t37 3h237q22 0 33.5 7t23.5 29q30 -16 30 -54q-1 -19 -12 -34t-29 -15h-71v-246q2 -123 36 -123q7 0 35 15q-7 -20 -26 -30 t-33 -10q-91 0 -91 127v267q-58 1 -104 1v-19q0 -148 -35 -263t-88 -115q-13 0 -22 8t-9 19z" />
<glyph unicode="&#x2000;" horiz-adv-x="500" />
<glyph unicode="&#x2001;" horiz-adv-x="1000" />
<glyph unicode="&#x2002;" horiz-adv-x="500" />
<glyph unicode="&#x2003;" horiz-adv-x="1000" />
<glyph unicode="&#x2004;" horiz-adv-x="333" />
<glyph unicode="&#x2005;" horiz-adv-x="250" />
<glyph unicode="&#x2006;" horiz-adv-x="166" />
<glyph unicode="&#x2007;" horiz-adv-x="631" />
<glyph unicode="&#x2008;" horiz-adv-x="228" />
<glyph unicode="&#x2009;" horiz-adv-x="100" />
<glyph unicode="&#x200a;" horiz-adv-x="10" />
<glyph unicode="&#x2010;" horiz-adv-x="438" d="M120 191v57h315v-57h-315z" />
<glyph unicode="&#x2011;" horiz-adv-x="438" d="M120 191v57h315v-57h-315z" />
<glyph unicode="&#x2012;" horiz-adv-x="631" d="M120 191v57h508v-57h-508z" />
<glyph unicode="&#x2013;" horiz-adv-x="500" d="M120 191v57h377v-57h-377z" />
<glyph unicode="&#x2014;" horiz-adv-x="1000" d="M120 191v57h877v-57h-877z" />
<glyph unicode="&#x2015;" horiz-adv-x="2000" d="M120 191v57h1877v-57h-1877z" />
<glyph unicode="&#x2016;" horiz-adv-x="572" d="M553 -10h-66v760h66v-760zM267 -10h-66v760h66v-760z" />
<glyph unicode="&#x2018;" horiz-adv-x="214" d="M313 526q0 -26 -21 -46.5t-45 -20.5q-49 0 -49 60q0 37 17 73.5t36 59.5t50.5 48t42 31.5t28.5 16.5l3 2q-1 -1 -14 -13.5t-22 -21.5t-23.5 -26t-23.5 -31t-16 -31.5t-7 -31.5q0 -20 22 -35.5t22 -33.5z" />
<glyph unicode="&#x2019;" horiz-adv-x="214" d="M225 683q0 26 21 46.5t45 20.5q49 0 49 -60q0 -37 -17 -73.5t-36 -59.5t-50.5 -48t-42 -31.5t-28.5 -16.5l-3 -2q1 1 14 13.5t22 21.5t23.5 26t23.5 31t16 31.5t7 31.5q0 20 -22 35.5t-22 33.5z" />
<glyph unicode="&#x201a;" horiz-adv-x="252" d="M55 32q0 26 20.5 46.5t45.5 20.5q49 0 49 -60q0 -37 -17 -73.5t-36 -59.5t-50.5 -48t-42 -31.5t-28.5 -16.5l-3 -2q1 1 10 9.5t17 16.5t20 21t21.5 26t18.5 27t14 28.5t5 26.5q0 20 -22 35.5t-22 33.5z" />
<glyph unicode="&#x201b;" horiz-adv-x="220" d="M360 713q0 -25 -16 -41t-34.5 -23.5t-34.5 -28t-16 -54.5q0 -35 35 -107q-78 67 -78 140q0 50 29.5 100.5t76.5 50.5q17 0 27.5 -10.5t10.5 -26.5z" />
<glyph unicode="&#x201c;" horiz-adv-x="431" d="M319 526q0 -26 -21 -46.5t-45 -20.5q-49 0 -49 60q0 37 17 73.5t36 59.5t50.5 48t42 31.5t28.5 16.5l3 2q-1 -1 -14 -13.5t-22 -21.5t-23.5 -26t-23.5 -31t-16 -31.5t-7 -31.5q0 -20 22 -35.5t22 -33.5zM516 526q0 -26 -21 -46.5t-45 -20.5q-49 0 -49 60q0 37 17 73.5 t36 59.5t50.5 48t42 31.5t28.5 16.5l3 2q-1 -1 -14 -13.5t-22 -21.5t-23.5 -26t-23.5 -31t-16 -31.5t-7 -31.5q0 -20 22 -35.5t22 -33.5z" />
<glyph unicode="&#x201d;" horiz-adv-x="402" d="M225 683q0 26 21 46.5t45 20.5q49 0 49 -60q0 -37 -17 -73.5t-36 -59.5t-50.5 -48t-42 -31.5t-28.5 -16.5l-3 -2q1 1 14 13.5t22 21.5t23.5 26t23.5 31t16 31.5t7 31.5q0 20 -22 35.5t-22 33.5zM424 683q0 26 21 46.5t45 20.5q49 0 49 -60q0 -37 -17 -73.5t-36 -59.5 t-50.5 -48t-42 -31.5t-28.5 -16.5l-3 -2q1 1 14 13.5t22 21.5t23.5 26t23.5 31t16 31.5t7 31.5q0 20 -22 35.5t-22 33.5z" />
<glyph unicode="&#x201e;" horiz-adv-x="390" d="M247 32q0 26 20.5 46.5t45.5 20.5q49 0 49 -60q0 -37 -17 -73.5t-36 -59.5t-50.5 -48t-42 -31.5t-28.5 -16.5l-3 -2q1 1 10 9.5t17 16.5t20 21t21.5 26t18.5 27t14 28.5t5 26.5q0 20 -22 35.5t-22 33.5zM48 32q0 26 20.5 46.5t45.5 20.5q49 0 49 -60q0 -37 -17 -73.5 t-36 -59.5t-50.5 -48t-42 -31.5t-28.5 -16.5l-3 -2q1 1 10 9.5t17 16.5t20 21t21.5 26t18.5 27t14 28.5t5 26.5q0 20 -22 35.5t-22 33.5z" />
<glyph unicode="&#x201f;" horiz-adv-x="419" d="M360 713q0 -25 -16 -41t-34.5 -23.5t-34.5 -28t-16 -54.5q0 -35 35 -107q-78 67 -78 140q0 50 29.5 100.5t76.5 50.5q17 0 27.5 -10.5t10.5 -26.5zM559 713q0 -25 -16 -41t-34.5 -23.5t-34.5 -28t-16 -54.5q0 -35 35 -107q-78 67 -78 140q0 50 29.5 100.5t76.5 50.5 q17 0 27.5 -10.5t10.5 -26.5z" />
<glyph unicode="&#x2020;" horiz-adv-x="399" d="M138 -150q101 347 101 439q0 3 -0.5 7.5t-0.5 6.5q26 36 38 65.5t26 78.5q-102 0 -148 -35q-12 5 -20.5 19.5t-10.5 28.5q26 39 58 50q27 -34 128 -36q22 81 22 135q0 25 -4 44q24 40 59 57q27 -12 33 -57q-21 -26 -37.5 -59.5t-24 -56t-19.5 -63.5q103 2 150 36 q12 -5 20 -20t10 -30q-25 -37 -57 -48q-27 35 -130 35q-17 -63 -17 -99q0 -18 5 -45q-61 -99 -146 -453h-35z" />
<glyph unicode="&#x2021;" horiz-adv-x="438" d="M459 157q-9 -14 -27 -30t-31 -21q-32 36 -128 38q-25 -92 -25 -141q0 -25 6 -46q-29 -44 -63 -57q-27 16 -31 57q46 54 83 187q-101 -2 -149 -38q-12 4 -20.5 20t-9.5 31q28 39 57 48q24 -33 128 -36q20 70 20 115q0 26 -7 46q29 35 42 62.5t25 75.5q-101 0 -147 -36 q-11 5 -20 20.5t-11 29.5q11 15 27.5 30.5t29.5 18.5q28 -34 129 -36q17 61 17 106q0 29 -7 53q27 42 61 56q13 -6 22 -22.5t11 -33.5q-31 -36 -45.5 -70t-28.5 -89q100 2 148 36q20 -6 31 -49q-26 -37 -57 -50q-28 36 -130 36q-15 -58 -15 -87q0 -26 9 -50 q-42 -43 -74 -162q101 0 149 36q21 -8 31 -48z" />
<glyph unicode="&#x2022;" horiz-adv-x="389" d="M416 306q0 -57 -42.5 -98.5t-99.5 -41.5q-59 0 -100 42t-41 101t41 100t99 41q61 0 102 -41.5t41 -102.5z" />
<glyph unicode="&#x2023;" horiz-adv-x="382" d="M145 484l298 -200l-298 -200v400z" />
<glyph unicode="&#x2024;" horiz-adv-x="228" d="M182 62q0 -28 -22.5 -50.5t-52.5 -22.5q-20 0 -32.5 12t-12.5 31q0 29 25 50.5t51 21.5q20 0 32 -12t12 -30z" />
<glyph unicode="&#x2025;" horiz-adv-x="456" d="M410 62q0 -28 -22.5 -50.5t-52.5 -22.5q-20 0 -32.5 12t-12.5 31q0 29 25 50.5t51 21.5q20 0 32 -12t12 -30zM182 62q0 -28 -22.5 -50.5t-52.5 -22.5q-20 0 -32.5 12t-12.5 31q0 29 25 50.5t51 21.5q20 0 32 -12t12 -30z" />
<glyph unicode="&#x2026;" horiz-adv-x="684" d="M638 62q0 -28 -22.5 -50.5t-52.5 -22.5q-20 0 -32.5 12t-12.5 31q0 29 25 50.5t51 21.5q20 0 32 -12t12 -30zM410 62q0 -28 -22.5 -50.5t-52.5 -22.5q-20 0 -32.5 12t-12.5 31q0 29 25 50.5t51 21.5q20 0 32 -12t12 -30zM182 62q0 -28 -22.5 -50.5t-52.5 -22.5 q-20 0 -32.5 12t-12.5 31q0 29 25 50.5t51 21.5q20 0 32 -12t12 -30z" />
<glyph unicode="&#x2030;" horiz-adv-x="1200" d="M296 328q58 0 104 87t46 175q0 98 -83 98q-53 0 -100.5 -81.5t-47.5 -173.5q0 -105 81 -105zM749 710q-293 -464 -432 -720h-68q267 402 433 720h67zM650 10q58 0 104 87t46 175q0 98 -83 98q-53 0 -100.5 -81t-47.5 -174q0 -105 81 -105zM504 577q0 -60 -28 -121 t-82 -104.5t-119 -43.5q-60 0 -90.5 37.5t-30.5 96.5q0 97 67.5 182.5t160.5 85.5q61 0 91.5 -37t30.5 -96zM858 259q0 -59 -28 -120.5t-82.5 -105t-119.5 -43.5q-60 0 -90 37t-30 96q0 98 67.5 183.5t160.5 85.5q61 0 91.5 -37t30.5 -96zM1038 10q58 0 104 87t46 175 q0 98 -83 98q-53 0 -100.5 -81t-47.5 -174q0 -105 81 -105zM1246 259q0 -59 -28 -120.5t-82.5 -105t-119.5 -43.5q-60 0 -90 37t-30 96q0 98 67.5 183.5t160.5 85.5q61 0 91.5 -37t30.5 -96z" />
<glyph unicode="&#x2039;" horiz-adv-x="267" d="M345 406l-178 -182l72 -172l-14 -13q-81 116 -152 183q106 58 264 194q10 0 8 -10z" />
<glyph unicode="&#x203a;" horiz-adv-x="265" d="M311 222q-142 -80 -250 -183l-6 13l164 172l-80 182q2 10 12 10q27 -49 74 -108t86 -86z" />
<glyph unicode="&#x2044;" horiz-adv-x="300" d="M585 710l-643 -720h-49l646 720h46z" />
<glyph unicode="&#x20ac;" horiz-adv-x="578" d="M598 122q0 -18 -32.5 -48.5t-93 -57t-121.5 -26.5q-96 0 -140 55t-44 148q0 17 4 57h-81l33 50h55q3 17 13 56h-73l34 50h55q45 131 137.5 217.5t217.5 86.5q43 0 103.5 -27.5t60.5 -63.5q0 -16 -11 -26.5t-24 -10.5q-18 0 -31 16t-22 35t-34.5 35t-65.5 16 q-46 0 -88 -28.5t-72 -74t-50 -89t-33 -86.5h216l-40 -50h-189l-4 -16q-2 -6 -10 -40h158l-40 -50h-127q-8 -45 -8 -83q0 -152 137 -152q35 0 64.5 20.5t45.5 44.5t36.5 44.5t39.5 20.5q24 0 24 -23z" />
<glyph unicode="&#x2113;" horiz-adv-x="392" d="M256 353q88 87 130 174.5t42 145.5q0 45 -26 45q-28 0 -52 -51t-58 -177zM212 -10q-95 0 -95 90q0 33 16 96l22 80l-74 -49l-4 26l88 61l35 133q34 129 58.5 183.5t65.5 92.5q48 47 94 47q59 0 59 -76q0 -31 -10 -66t-33.5 -82t-72.5 -103.5t-118 -115.5l-24 -89 q-18 -69 -18 -106t15 -52t44 -15q60 0 129 78l13 -18q-90 -115 -190 -115z" />
<glyph unicode="&#x2116;" horiz-adv-x="908" d="M830 351q38 0 67 32.5t41.5 70.5t12.5 69q0 62 -70 62q-49 0 -84.5 -55.5t-35.5 -112.5q0 -66 69 -66zM1006 506q0 -61 -59 -115.5t-135 -54.5q-51 0 -80 26.5t-29 67.5q0 61 59 115.5t135 54.5q51 0 80 -26.5t29 -67.5zM265 555q0 12 -24 12h-8q-26 0 -26 13q4 7 9 10 h125l107 -472l136 430q2 6 2 8q0 8 -29.5 12t-29.5 10q0 4 12 12h175q2 -4 2 -6q0 -9 -9 -15q-32 -1 -45.5 -2.5t-19 -5.5t-8.5 -13l-159 -501q-6 -20 -6 -30t4 -17h-64l-115 485l-141 -443q0 -1 -0.5 -2t-0.5 -2q0 -17 58 -17q4 -6 1.5 -12t-8.5 -9h-175q-2 6 -2 8 q0 8 9 13q62 0 68 21l161 506q1 2 1 7z" />
<glyph unicode="&#x2122;" horiz-adv-x="745" d="M307 687q-37 0 -58.5 -8.5t-26 -18t-10 -18t-12.5 -8.5q-9 0 -13 9l28 57h266l28 -57q-4 -9 -13 -9q-7 0 -12.5 8.5t-10.5 18t-27 18t-59 8.5h-5.5h-5t-4 -0.5t-3.5 -1.5t-2 -3.5t-1 -6.5v-300q1 -13 16 -13h10l1 -6l-1 -6h-88l-3 6l3 6h10q14 0 14 13v300q0 4 -1 7 t-3.5 4t-4 1h-6.5h-6zM815 362l1 -6l-1 -6h-77l-3 6l3 6h10q14 0 14 13v265l-72 -145q-9 -6 -10 -6q-6 4 -22.5 35t-37 72.5t-21.5 43.5v-265q1 -13 16 -13h10l1 -6l-1 -6h-88l-3 6l3 6h10q14 0 14 11v304q0 11 -13 11q-2 0 -6 -0.5t-6 -0.5l-2 7l2 6h63q2 -4 10.5 -23 t18 -40t20.5 -42.5t20 -35.5t13 -14q7 3 23.5 34.5t37 75.5t20.5 45h53l2 -6l-2 -7q-2 0 -6 0.5t-6 0.5q-13 0 -13 -11v-304q0 -11 15 -11h10z" />
<glyph unicode="&#x2126;" horiz-adv-x="762" d="M768 147l-24 -147h-232l-6 21q1 2 20.5 34t25.5 44t23 44.5t25 54.5t18 54t14.5 63t4.5 63q-1 154 -57.5 227.5t-139.5 73.5q-87 0 -140 -73t-53 -228q0 -27 4 -55.5t7.5 -48.5t15 -50t15.5 -42.5t21 -45t20 -38t24 -41t21 -36.5l-7 -21h-230l-23 148h24q15 -50 29 -65 t44 -15h105q-32 28 -53.5 51t-50.5 63.5t-44.5 91t-15.5 108.5q0 147 82.5 237.5t205.5 90.5q128 0 206.5 -85.5t79.5 -232.5q0 -96 -46 -173t-120 -151h110q32 0 45 13.5t30 65.5h22z" />
<glyph unicode="&#x212e;" horiz-adv-x="780" d="M271 135q0 -18 29.5 -47.5t85 -55.5t112.5 -26q68 0 127.5 32t102.5 88h51q-48 -64 -122.5 -101.5t-160.5 -37.5q-148 0 -252.5 106t-104.5 255q0 151 104 256.5t252 105.5q149 0 254 -105.5t106 -256.5v-9h-579q-5 0 -5 -5v-199zM496 689q-58 0 -113 -26.5t-83.5 -56.5 t-28.5 -47v-195q0 -7 5 -7h444q3 0 3 7v199q-4 32 -73.5 79t-153.5 47z" />
<glyph unicode="&#x2202;" horiz-adv-x="552" d="M521 464q0 100 -44 170.5t-110 70.5q-35 0 -68.5 -17.5t-56.5 -35t-32 -17.5h-2q-28 0 -28 32t53 57.5t108 25.5q60 0 109.5 -34.5t78.5 -88t44.5 -112t15.5 -112.5q0 -62 -11 -126.5t-36 -133t-76.5 -112t-121.5 -43.5q-79 0 -127.5 55.5t-48.5 149.5v5q0 97 57 170.5 t153 73.5h1q36 0 73.5 -20.5t61.5 -57.5q7 65 7 100zM248 158v-3q0 -59 26.5 -97.5t69.5 -38.5q121 0 163 303q-11 26 -42 52t-67 26q-45 0 -77 -23t-46.5 -62t-20.5 -76.5t-6 -80.5z" />
<glyph unicode="&#x2206;" horiz-adv-x="594" d="M497 47l-203 543l-194 -543h397zM594 0h-546v24l250 675l38 11l258 -686v-24z" />
<glyph unicode="&#x220f;" horiz-adv-x="817" d="M794 700v-26h-48q-23 -5 -30.5 -17.5t-7.5 -39.5v-622q0 -40 6.5 -60t28.5 -20h50v-25h-247v25h46q21 2 28.5 18t7.5 51l1 10v609q-2 44 -10.5 58t-29.5 14h-198q-21 0 -30 -15t-9 -53v-613q0 -22 1 -33t4 -23.5t9 -17.5t16 -5h46v-25h-240v25h43q25 1 33.5 16.5 t8.5 50.5v623q0 34 -7 49t-31 21h-50v25h609z" />
<glyph unicode="&#x2211;" horiz-adv-x="679" d="M616 525q-9 53 -18.5 81.5t-28 42t-34 15.5t-52.5 2h-194l180 -345l-219 -355h262q35 0 50.5 2t31.5 16t25.5 36.5t26.5 72.5l24 -7l-41 -196h-447v25l219 353l-214 407v25h440q0 -5 5 -67.5t7 -101.5z" />
<glyph unicode="&#x2212;" horiz-adv-x="577" d="M564 191h-438v57h438v-57z" />
<glyph unicode="&#x2215;" horiz-adv-x="291" d="M510 710q-301 -478 -432 -720h-68q259 389 433 720h67z" />
<glyph unicode="&#x2219;" horiz-adv-x="231" d="M176 306q24 0 41 -17t17 -41q0 -25 -16.5 -41t-41.5 -16q-24 0 -41 16.5t-17 40.5t17 41t41 17z" />
<glyph unicode="&#x221a;" horiz-adv-x="495" d="M580 899l-157 -1036l-19 -13l-210 561l-84 -47l-11 33l146 80l168 -458h1l130 891z" />
<glyph unicode="&#x221e;" horiz-adv-x="730" d="M606 397h-1q-17 0 -33 -6.5t-33 -22.5t-25 -25t-26 -32t-19 -24q50 -63 78.5 -87.5t61.5 -24.5q40 0 65 33.5t25 75.5q0 52 -26 82.5t-67 30.5zM273 175h2q13 0 27.5 5.5t24.5 12t24.5 20.5t21 21.5t21.5 25t19 22.5q-22 31 -32.5 43.5t-30.5 33.5t-40 29.5t-43 8.5 q-40 0 -64.5 -32.5t-24.5 -81.5q0 -45 27 -76.5t68 -31.5zM748 289l1 -1v-2q0 -74 -42.5 -119.5t-100.5 -45.5q-41 0 -79.5 28.5t-87.5 92.5q-45 -59 -83.5 -90t-88.5 -31q-57 0 -98 47t-41 116q0 73 41 119.5t105 46.5q47 0 86 -31.5t83 -89.5q22 29 35 44t35 36.5t46.5 31 t51.5 9.5h2q59 0 97 -44t38 -114v-3z" />
<glyph unicode="&#x222b;" horiz-adv-x="349" d="M-22 -163q0 24 20 41t41 17q13 0 17.5 -25.5t13.5 -25.5q22 0 45 47t41 126l94 416q96 427 253 427q18 0 32 -9.5t14 -26.5q0 -18 -15.5 -36t-37.5 -18q-16 0 -21 24t-14 24q-47 0 -88 -176l-90 -394q-24 -107 -51.5 -187.5t-53 -129t-53.5 -79t-52 -41.5t-50 -11 q-21 0 -33 10.5t-12 26.5z" />
<glyph unicode="&#x2248;" horiz-adv-x="538" d="M440 129q-43 0 -101 38q-60 38 -93 38q-30 0 -51 -19.5t-43 -55.5l-34 33q23 45 57.5 71.5t74.5 26.5q42 0 100 -38t91 -38q27 0 46.5 18t41.5 58l32 -35q-49 -97 -121 -97zM439 308q-44 0 -102 39q-58 38 -91 38q-29 0 -50.5 -20t-43.5 -56l-34 34q50 98 132 98 q41 0 99 -38q60 -38 91 -38q49 0 89 74l32 -33q-47 -98 -122 -98z" />
<glyph unicode="&#x2260;" horiz-adv-x="527" d="M101 156h152q63 104 73 127h-225v57h249q14 39 32 108h67q-33 -84 -44 -108h134v-57h-164q-10 -17 -35.5 -59t-39.5 -68h240v-57h-264q-11 -26 -38 -110h-68q30 72 52 110h-121v57z" />
<glyph unicode="&#x2264;" horiz-adv-x="553" d="M542 94l-439 199v57l439 200v-62l-363 -166l363 -167v-61zM104 57h438v-57h-438v57z" />
<glyph unicode="&#x2265;" horiz-adv-x="591" d="M150 94v61l361 167l-362 166v62l439 -200v-57zM150 57h438v-57h-438v57z" />
<glyph unicode="&#x25ca;" horiz-adv-x="495" d="M498 336l-162 351h-3l-162 -349l163 -352h2zM557 336l-195 -410h-58l-191 410l192 414h59z" />
<glyph unicode="&#x25fc;" horiz-adv-x="450" d="M0 450h450v-450h-450v450z" />
<glyph unicode="&#xe087;" horiz-adv-x="715" d="M237 568q0 49 41 95.5t121 46.5q38 0 67.5 -15.5t49.5 -38.5t39.5 -45.5t46.5 -39.5t60 -18q30 44 53 47q-13 -14 -24 -50l-29 -110h82l-25 -25h-64l-68 -255q-16 -57 -16 -87q0 -57 51 -57q40 0 88 54l17 -16q-32 -35 -61.5 -49.5t-69.5 -14.5q-98 0 -98 94q0 23 8 55 l74 276h-54l25 25q7 0 14 2.5t14.5 8.5t13.5 11t13.5 14.5t11 14t11 15t8.5 12.5q-17 2 -43.5 24.5t-51 47.5t-62 45.5t-75.5 20.5q-33 0 -56.5 -12t-33.5 -31t-14 -33.5t-4 -26.5q0 -49 54 -103h2q21 0 46.5 -3t53 -15t27.5 -31q0 -15 -13.5 -26.5t-26.5 -11.5 q-18 0 -53 30.5t-57 30.5q-66 0 -122 -91.5t-56 -197.5q0 -119 103 -119q57 0 122 58l16 -18q-72 -66 -164 -66q-73 0 -113 45.5t-40 115.5q0 101 72.5 191.5t169.5 105.5q-81 51 -81 120z" />
<glyph unicode="&#xe0db;" horiz-adv-x="909" d="M669 15q63 0 128 86.5t65 208.5q0 114 -99 114q-41 0 -77.5 -22t-47.5 -62l-74 -275q41 -50 105 -50zM403 148q0 -28 -9 -52t-31.5 -50t-71.5 -41t-120 -15q-129 0 -129 46q0 15 13.5 29.5t28.5 14.5q18 0 53 -32.5t56 -32.5q63 0 100 32.5t37 68.5q0 23 -20 41t-48.5 31 t-57.5 27.5t-49 37.5t-20 53q0 52 45.5 96t141.5 48q-83 42 -83 112q0 23 9 47.5t27.5 47.5t51.5 38t75 15q38 0 67.5 -16t49.5 -39t39.5 -46.5t46.5 -39.5t60 -16q35 0 61 31l-66 -170q69 36 129 36q75 0 116 -46t41 -117q0 -72 -39 -140.5t-105 -112.5t-137 -44 q-29 0 -61 15t-46 35l-75 -280l-78 -10l161 600l-41 52q42 3 99.5 48.5t67.5 81.5q-19 -14 -44 -14h-8q-16 0 -42 21.5t-51 47.5t-63 47.5t-76 21.5q-34 0 -57.5 -12.5t-33.5 -32t-14 -35t-4 -29.5q0 -19 8.5 -38t17 -30t25.5 -29h7q32 0 66.5 -11t34.5 -35q0 -14 -13 -28 t-28 -14q-17 0 -48.5 31t-52.5 31q-44 0 -75.5 -28t-31.5 -64q0 -28 30.5 -49t66.5 -33t66.5 -38t30.5 -64z" />
<glyph unicode="&#xe1a0;" horiz-adv-x="548" d="M590 -150q-22 0 -53.5 16t-72.5 56t-79 98t-73 154t-55 213l-91 -337q-1 -2 -1 -7q0 -18 45 -18q4 -6 1.5 -13.5t-8.5 -11.5h-175q-2 6 -2 9q0 9 9 16q50 0 56 25l161 600q1 3 1 7q0 18 -44 18q-8 12 7 25h175q8 -12 -7 -25q-50 0 -57 -25l-65 -242l295 242q9 9 9 16 q0 9 -21 9h-30q-2 3 -2 13q4 9 9 12h175q2 -4 2 -7q0 -11 -9 -18h-34l-328 -269q35 -219 134.5 -367t184.5 -148q23 0 39 11q-50 -52 -96 -52z" />
<glyph unicode="&#xe1a2;" horiz-adv-x="732" d="M399 15q50 0 104.5 36t100 95.5t75 146.5t29.5 179q0 95 -43.5 153.5t-141.5 58.5q-46 0 -99.5 -34t-100 -90.5t-77 -141t-30.5 -174.5q0 -100 43.5 -164.5t139.5 -64.5zM122 241q0 113 59 221.5t160.5 178t213.5 69.5q115 0 178 -71t63 -181q0 -144 -99 -278.5 t-245 -173.5q-3 -12 -3 -26q0 -67 56 -121.5t152 -54.5q65 0 139.5 23.5t139.5 74.5q-68 -82 -165.5 -117t-191.5 -35q-78 0 -140 62.5t-62 140.5q0 21 4 37q-124 0 -191.5 68.5t-67.5 182.5z" />
<glyph unicode="&#xe1a3;" horiz-adv-x="530" d="M337 339q21 -107 60.5 -196.5t83.5 -142t85.5 -81t72.5 -28.5q23 0 39 11q-50 -52 -96 -52q-33 0 -85 36q-86 60 -148.5 183t-93.5 286l-4 10l-85 -315q-1 -2 -1 -7q0 -18 45 -18q4 -6 1.5 -13.5t-8.5 -11.5h-175q-2 6 -2 9q0 9 9 16q50 0 56 25l161 600q3 9 3 14 q0 11 -23 11h-23q-7 11 7 25h279q62 0 101 -39t39 -98q0 -78 -67 -154.5t-160 -76.5q-29 0 -71 7zM374 374q47 0 84.5 20.5t58.5 52t32 66t11 66.5q0 96 -111 96h-90q-14 0 -21 -5.5t-11 -19.5l-68 -256q39 -20 115 -20z" />
<glyph unicode="&#xe1a7;" horiz-adv-x="548" d="M214 700h175q8 -12 -7 -25h-30q-28 -2 -28 -18q0 -4 1 -7l67 -248l198 248q8 9 8 16q0 9 -28 9h-37q-10 14 7 25h175q3 -11 -7 -25h-26q-26 -2 -45 -25l-233 -290l22 -77q58 -240 217 -367q32 -25 72 -25q23 0 39 11q-50 -52 -96 -52q-33 0 -85 36q-146 102 -221 382 l-5 20l-192 -238q-9 -13 -9 -16q0 -9 28 -9h39q9 -12 -7 -25h-175q-2 4 -2 9q0 9 9 16h25q26 2 45 25l227 282l-85 318q-3 13 -12 18.5t-31 6.5q-7 15 7 25z" />
<glyph unicode="&#xe1a8;" horiz-adv-x="464" d="M265 92q53 0 96 -19.5t68 -48t42 -64t23 -64.5t6 -53q0 -46 -17 -93q1 9 1 27q0 99 -65 173.5t-174 74.5q-104 0 -175 -57q-6 29 -61 32q28 13 66 58l481 592q1 4 1 10q0 15 -24 15h-16q-76 0 -132 -11t-83.5 -26.5t-45 -31.5t-29 -27t-23.5 -11q-16 0 -20 18l87 114h392 l1 -12q-7 -13 -99.5 -127.5t-231 -283.5t-160.5 -196q49 11 92 11z" />
<glyph unicode="&#xe1aa;" horiz-adv-x="495" d="M366 750q-18 -29 -23 -50l-114 -422l219 112q15 8 15 14q0 10 -58 11q-1 4 -1 13l8 12h175q8 -12 -7 -25h-25l-261 -137q21 -102 68 -186t124.5 -139t170.5 -55l-115 -48q-132 44 -203.5 143.5t-114.5 263.5l-69 -257l-78 -10l177 660l-36 50q22 0 72 25t76 25z" />
<glyph unicode="&#xe1ad;" horiz-adv-x="481" d="M333 264q10 -64 37.5 -129t68 -121t97.5 -91.5t119 -35.5q28 0 52 7l-115 -48q-111 2 -197 102.5t-124 233.5q-19 -28 -42.5 -56.5t-55 -61.5t-65 -53.5t-60.5 -20.5q-10 0 -18 8t-8 18q0 20 17.5 32.5t39.5 17.5t49 14t40 20q40 34 92 118l-42 206l-65 -9v15 q62 20 79 20q20 0 35 -8t23.5 -18.5t15 -29.5t9.5 -32.5t6.5 -35.5t5.5 -32q40 48 104.5 102t102.5 54q31 0 31 -25q0 -20 -18 -32t-41.5 -16t-52 -13t-43.5 -22q-44 -37 -77 -78z" />
<glyph unicode="&#xe1ae;" horiz-adv-x="701" d="M445 232q30 0 68 6.5t79.5 20.5t69.5 41.5t28 63.5q0 29 -25.5 44.5t-61.5 15.5q-56 0 -99.5 -60.5t-56.5 -121.5zM346 162q0 54 27.5 110t73.5 98q-18 21 -46.5 37.5t-53.5 16.5q-69 0 -121.5 -95.5t-52.5 -196.5q0 -116 99 -116q29 0 99 50q-25 44 -25 96zM89 154 q0 111 87.5 203.5t200.5 92.5q62 0 108 -48q67 48 141 48q55 0 100.5 -23.5t45.5 -69.5q0 -47 -42 -80t-105.5 -47t-108.5 -19t-78 -5q-9 -34 -9 -70q0 -53 24 -86.5t75 -33.5q32 0 69.5 16.5t62.5 41.5l17 -20q-73 -64 -175 -64q-75 0 -117 52q-93 -52 -139 -52 q-74 0 -115.5 46.5t-41.5 117.5z" />
<glyph unicode="&#xe1b0;" horiz-adv-x="526" d="M366 424q-62 0 -127.5 -85.5t-65.5 -208.5q0 -114 99 -114q41 0 77.5 22t47.5 62l73 275q-39 49 -104 49zM635 719q0 10 11 20.5t27 10.5q46 0 46 -92q0 -95 -48 -178t-129 -120v3l-84 -313q-2 -8 -2 -12q0 -21 19 -21q11 0 27 8q-24 -35 -77 -35q-21 0 -29.5 6.5t-11 16 t-6.5 11.5q-67 -34 -132 -34q-74 0 -115.5 46.5t-41.5 117.5q0 69 37.5 137t103.5 113.5t140 45.5q40 0 73.5 -14.5t58 -29t41.5 -14.5q10 0 32.5 16t47 42t42.5 65.5t18 78.5q0 30 -12 55.5t-24 43t-12 26.5z" />
<glyph unicode="&#xe1be;" d="M184 232q29 0 67.5 6.5t81 20.5t71.5 41.5t29 63.5q0 29 -25.5 44.5t-61.5 15.5q-39 0 -75 -33t-56 -73t-28 -76zM88 154q0 107 85 201.5t196 94.5q77 0 109.5 -25.5t38.5 -78.5q48 23 98.5 104t50.5 144q0 30 -12 55.5t-24 43t-12 26.5q0 10 11 20.5t27 10.5 q46 0 46 -92q0 -21 -2.5 -46t-15 -69.5t-32.5 -85.5t-59.5 -86t-92.5 -79t-135.5 -58t-183.5 -28q-9 -34 -9 -70q0 -53 24 -86.5t75 -33.5q32 0 69.5 16.5t62.5 41.5l17 -20q-73 -64 -175 -64q-74 0 -115.5 46.5t-41.5 117.5z" />
<glyph unicode="&#xe1cd;" horiz-adv-x="516" d="M516 382q6 3 16.5 8.5t37 26t46.5 43t36.5 59t16.5 75.5q0 30 -12 55.5t-24 43t-12 26.5q0 10 11 20.5t27 10.5q46 0 46 -92q0 -62 -21 -118.5t-51.5 -93.5t-61 -60.5t-54.5 -29.5q0 -13 -5 -31l-70 -260q-3 -18 -3 -20q0 -21 15 -21q11 0 32 16q-12 -23 -36 -36.5 t-48 -13.5q-19 0 -31 9.5t-12 25.5q0 5 2 15l69 260q9 29 9 54q0 46 -38 46q-48 0 -156 -85l-84 -315l-78 -10l97 360l-37 50h3q22 0 71.5 25t74.5 25q-15 -20 -24 -50l-20 -75q34 37 55.5 57.5t60 44t69.5 23.5q36 0 57 -18.5t26 -49.5z" />
<glyph unicode="&#xe1da;" horiz-adv-x="512" d="M492 350q-27 0 -48 25q-19 25 -43 25q-48 0 -156 -85l-84 -315l-78 -10l97 360l-37 50q21 0 72 25t77 25q-15 -20 -24 -50l-20 -75q36 38 56 57.5t58.5 43.5t70.5 24q46 0 62 -18q2 -2 6 -7t5.5 -6.5t6 -3.5t10.5 -2q36 0 89.5 56.5t53.5 124.5q0 30 -12 55.5t-24 43 t-12 26.5q0 10 11 20.5t27 10.5q46 0 46 -92q0 -119 -74.5 -213.5t-135.5 -94.5z" />
<glyph unicode="&#xe1e0;" horiz-adv-x="329" d="M531 658q0 -66 -22.5 -116.5t-56.5 -76t-65 -38t-55 -12.5h-69l-68 -255q-16 -57 -16 -88q0 -57 51 -57q39 0 88 55l17 -16q-32 -35 -61.5 -49.5t-69.5 -14.5q-98 0 -98 94q0 23 8 55l74 276h-54l25 25q21 0 45.5 24t42.5 53t39.5 55t36.5 28q-13 -14 -24 -50l-29 -110 h55q65 0 117.5 41t52.5 113q0 30 -12 55.5t-24 43t-12 26.5q0 10 11 20.5t27 10.5q46 0 46 -92z" />
<glyph unicode="&#xfb05;" horiz-adv-x="594" d="M588 710q0 -15 -10 -25t-18.5 -12t-14.5 -2h-1q-28 0 -47 -23t-19 -48q0 -33 30 -33q20 0 37 11l32 22q-13 -14 -24 -50l-29 -110h82l-25 -25h-64l-68 -255q-16 -57 -16 -87q0 -57 51 -57q37 0 89 58l18 -16q-34 -36 -64 -52t-69 -16q-98 0 -98 94q0 23 8 55l74 276h-54 l25 25q8 0 16 3t16.5 10.5t14.5 13.5t15.5 18t14 18.5t14.5 21t13 18.5h-1q-32 0 -51 16.5t-19 40.5q0 23 19 44.5t57 34.5q-8 21 -37 21q-63 0 -111.5 -43t-65.5 -107l-134 -500q-15 -55 -59 -97t-94 -63q11 9 19.5 17t15.5 19t11 17.5t9 22.5t7 22.5t7.5 29t8.5 32.5 l98 365h-54l64 35q15 54 65 123.5t119 123t125 53.5q72 0 72 -40z" />
<glyph unicode="&#xfb06;" horiz-adv-x="740" d="M403 148q0 -28 -9 -52t-31.5 -50t-71.5 -41t-120 -15q-129 0 -129 46q0 15 13.5 29.5t28.5 14.5q18 0 53 -32.5t56 -32.5q63 0 100 32.5t37 68.5q0 23 -20 41t-48.5 31t-57.5 27.5t-49 37.5t-20 53q0 52 45.5 96t141.5 48q-83 42 -83 112q0 23 9 47.5t27.5 47.5t51.5 38 t75 15q38 0 67.5 -15.5t49.5 -38.5t39.5 -45.5t46.5 -39.5t60 -18q30 44 53 47q-13 -14 -24 -50l-26 -100h82l-25 -25h-64l-71 -265q-16 -59 -16 -87q0 -57 51 -57q37 0 89 58l18 -16q-34 -36 -64 -52t-69 -16q-98 0 -98 94q0 23 8 55l77 286h-54l25 25q16 0 33.5 13.5 t26.5 24t23 30.5q-17 2 -43.5 24.5t-51 47.5t-62 45.5t-75.5 20.5q-34 0 -57.5 -12.5t-33.5 -32t-14 -35t-4 -29.5q0 -19 8.5 -38t17 -30t25.5 -29h7q32 0 66.5 -11t34.5 -35q0 -14 -13 -28t-28 -14q-17 0 -48.5 31t-52.5 31q-44 0 -75.5 -28t-31.5 -64q0 -28 30.5 -49 t66.5 -33t66.5 -38t30.5 -64z" />
<glyph horiz-adv-x="576" d="M537 448q-49 -78 -96 -137.5t-77 -90.5t-72.5 -90t-87.5 -141h-68q50 76 99 135.5t79 91t71 90.5t85 142h67z" />
</font>
</defs>
</svg>
